<?xml version="1.0" standalone="no"?>
<!DOCTYPE svg PUBLIC "-//W3C//DTD SVG 1.1//EN" "http://www.w3.org/Graphics/SVG/1.1/DTD/svg11.dtd" >
<svg xmlns="http://www.w3.org/2000/svg">
<metadata>
Created by FontPrep 20130207 at Wed Apr 23 15:38:12 2014
 By Chris Slowik
UI8
</metadata>
<defs>
<font id="5dcbe85314b7a8b60e6e8783d216f88c" horiz-adv-x='1024' >
  <font-face 
    font-family="UIFont-Solid"
    font-weight="400"
    font-stretch="normal"
    units-per-em="2048"
    panose-1="0 0 5 0 0 0 0 0 0 0"
    ascent="1638"
    descent="-410"
    x-height="1096"
    cap-height="1462"
    bbox="-160 -492 1868 1567"
    underline-thickness="50"
    underline-position="-104"
    unicode-range="U+0020-E588"
  />
<missing-glyph horiz-adv-x="500" 
d="M50 605v-510l170 255zM80 50h340l-170 255zM280 350l170 -255v510zM250 395l170 255h-340zM0 0v700h500v-700h-500z" />
    <glyph glyph-name="uniE111" unicode="arrow&#x2d;down" 
d="M1248 780h203q42 0 60 -38t-9 -71l-533 -639q-27 -32 -69 -32t-69 32l-533 639q-27 33 -9 71t60 38h205q38 0 64 26t26 64v491q0 41 28 69t69 28h321q40 0 68 -28t28 -69v-491q0 -38 26 -64t64 -26z" />
    <glyph glyph-name="uniE112" unicode="arrow&#x2d;up" 
d="M552 678h-203q-42 0 -60 38t9 71l533 639q27 32 69 32t69 -32l533 -639q27 -33 9 -71t-60 -38h-205q-38 0 -64 -26t-26 -64v-491q0 -41 -28 -69t-69 -28h-321q-40 0 -68 28t-28 69v491q0 38 -26 64t-64 26z" />
    <glyph glyph-name="uniE113" unicode="caret&#x2d;right" 
d="M624 49v1107q0 40 36 58t68 -9l640 -526q36 -30 36 -76t-36 -76l-640 -527q-32 -26 -68 -8t-36 57z" />
    <glyph glyph-name="uniE114" unicode="caret&#x2d;left" 
d="M1192 1156v-1107q0 -39 -36 -57t-68 8l-640 527q-36 29 -36 75t36 76l640 527q32 27 68 9t36 -58z" />
    <glyph glyph-name="uniE115" unicode="arrow&#x2d;circle&#x2d;down" 
d="M1220 700h-118q-20 0 -36 16t-16 36v287q0 23 -16 39t-40 17h-188q-24 -1 -40 -17t-16 -39v-287q0 -20 -16 -36t-37 -16h-119q-26 0 -36 -22t6 -42l311 -373q15 -19 40 -19t40 19l311 373q16 20 6 42t-36 22zM900 1462q156 0 298 -61t246 -164q103 -103 164 -245t61 -299
t-61 -299t-164 -245q-104 -103 -246 -164t-298 -61t-298 61t-246 164q-103 103 -164 245t-61 299t61 299t164 245q104 103 246 164t298 61z" />
    <glyph glyph-name="uniE116" unicode="arrow&#x2d;circle&#x2d;up" 
d="M580 686h118q20 0 36 -16t16 -36v-287q0 -23 16 -39t41 -17h187q24 1 40 17t16 39v287q0 20 16 36t37 16h119q26 0 36 22t-6 42l-311 373q-15 19 -40 19t-40 -19l-311 -373q-16 -20 -6 -42t36 -22zM900 -76q-156 0 -298 61t-246 164q-103 103 -164 245t-61 299t61 299
t164 245q104 103 246 164t298 61t298 -61t246 -164q103 -103 164 -245t61 -299t-61 -299t-164 -245q-104 -103 -246 -164t-298 -61z" />
    <glyph glyph-name="uniE117" unicode="arrow&#x2d;o&#x2d;circle&#x2d;right" 
d="M1209 642q0 -28 -19 -48l-216 -215q-20 -21 -47 -10t-27 40v112q0 19 -12 31t-31 12h-199q-32 0 -54 22t-22 54v2q0 32 22 54t54 22h199q19 0 31 12t12 31v112q0 29 27 41t47 -10l216 -215q19 -19 19 -47zM900 137q104 0 198 40q94 41 164 109q68 68 108 162t41 199
q-1 105 -41 199t-108 162t-164 110q-94 40 -198 40t-198 -40t-164 -110q-68 -68 -108 -162t-41 -199q1 -105 41 -199t108 -162t164 -109q94 -40 198 -40zM900 1295q132 1 252 -51t206 -138q87 -86 138 -207q51 -119 51 -251t-51 -252t-138 -206q-86 -86 -206 -138t-252 -52
t-252 52t-206 138q-87 86 -138 206t-51 252t51 251q51 121 138 207q86 86 206 138t252 51z" />
    <glyph glyph-name="uniE118" unicode="arrow&#x2d;o&#x2d;circle&#x2d;left" 
d="M591 648q0 28 19 47l216 215q20 22 47 10t27 -41v-111q0 -18 12 -31t31 -13h199q32 0 54 -22t22 -54v-1q0 -32 -22 -54t-54 -22h-199q-19 -1 -31 -13t-12 -30v-113q0 -29 -27 -40t-47 10l-216 215q-19 20 -19 48zM900 1158q-104 0 -198 -40t-164 -110q-68 -68 -108 -162
t-41 -199q1 -105 41 -199t108 -162t164 -109q94 -40 198 -40t198 40q94 41 164 109q68 68 108 162t41 199q-1 105 -41 199t-108 162t-164 110q-94 40 -198 40zM900 0q-132 0 -252 52t-206 138q-87 86 -138 206t-51 252t51 251q51 121 138 207q86 86 206 138t252 51
q132 1 252 -51t206 -138q87 -86 138 -207q51 -119 51 -251t-51 -252t-138 -206q-86 -86 -206 -138t-252 -52z" />
    <glyph glyph-name="uniE121" unicode="caret&#x2d;o&#x2d;circle&#x2d;left" 
d="M1041 900v-494q1 -17 -17 -25t-33 4l-309 234q-17 15 -17 35t17 33l309 235q15 12 33 4t17 -26zM900 137q104 0 198 40q94 41 164 109q68 68 108 162t41 199q-1 105 -41 199t-108 162t-164 110q-94 40 -198 40t-198 -40t-164 -110q-68 -68 -108 -162t-41 -199
q1 -105 41 -199t108 -162t164 -109q94 -40 198 -40zM900 1295q132 1 252 -51t206 -138q87 -86 138 -207q51 -119 51 -251t-51 -252t-138 -206q-86 -86 -206 -138t-252 -52t-252 52t-206 138q-87 86 -138 206t-51 252t51 251q51 121 138 207q86 86 206 138t252 51z" />
    <glyph glyph-name="uniE122" unicode="caret&#x2d;o&#x2d;circle&#x2d;right" 
d="M759 394v494q-1 18 17 26t33 -4l309 -235q17 -13 17 -33t-17 -34l-309 -235q-15 -12 -33 -4t-17 25zM900 1158q-104 0 -198 -40t-164 -110q-68 -68 -108 -162t-41 -199q1 -105 41 -199t108 -162t164 -109q94 -40 198 -40t198 40q94 41 164 109q68 68 108 162t41 199
q-1 105 -41 199t-108 162t-164 110q-94 40 -198 40zM900 0q-132 0 -252 52t-206 138q-87 86 -138 206t-51 252t51 251q51 121 138 207q86 86 206 138t252 51q132 1 252 -51t206 -138q87 -86 138 -207q51 -119 51 -251t-51 -252t-138 -206q-86 -86 -206 -138t-252 -52z" />
    <glyph glyph-name="uniE123" unicode="arrow&#x2d;circle&#x2d;right" 
d="M1209 642q0 28 -19 47l-216 215q-20 22 -47 10t-27 -41v-112q0 -19 -12 -31t-31 -12h-199q-32 0 -54 -22t-22 -54v-2q0 -32 22 -54t54 -22h199q19 0 31 -12t12 -31v-112q0 -29 27 -40t47 10l216 215q19 20 19 48zM900 1295q132 1 252 -51t206 -138q87 -86 138 -207
q51 -119 51 -251t-51 -252t-138 -206q-86 -86 -206 -138t-252 -52t-252 52t-206 138q-87 86 -138 206t-51 252t51 251q51 121 138 207q86 86 206 138t252 51z" />
    <glyph glyph-name="uniE124" unicode="arrow&#x2d;circle&#x2d;left" 
d="M591 654q0 -28 19 -48l216 -215q20 -21 47 -10t27 40v113q0 18 12 30t31 13h199q32 0 54 22t22 54v1q0 32 -22 54t-54 22h-199q-19 0 -31 13t-12 31v111q0 29 -27 41t-47 -10l-216 -215q-19 -19 -19 -47zM914 0q-118 0 -218 32q-190 62 -316 230q-127 168 -127 385
q-1 267 189 458q188 190 480 190q110 1 230 -51t206 -138q87 -86 138 -207q51 -119 51 -251t-51 -252t-138 -206q-86 -86 -206 -138t-238 -52z" />
    <glyph glyph-name="uniE125" unicode="caret&#x2d;circle&#x2d;left" 
d="M1024 385v537q0 20 -18 28t-32 -4l-311 -256q-17 -14 -17 -36t17 -37l311 -256q14 -11 32 -3t18 27zM900 1295q132 1 252 -51t206 -138q87 -86 138 -207q51 -119 51 -251t-51 -252t-138 -206q-86 -86 -206 -138t-252 -52t-252 52t-206 138q-87 86 -138 206t-51 252
t51 251q51 121 138 207q86 86 206 138t252 51z" />
    <glyph glyph-name="uniE126" unicode="caret&#x2d;circle&#x2d;right" 
d="M1149 654q0 22 -17 36l-311 256q-15 12 -33 4t-17 -28v-537q-1 -20 17 -28t33 4l311 256q17 15 17 37zM900 1294q132 0 252 -51t206 -137q87 -86 138 -207q51 -120 51 -252q0 -131 -51 -251t-138 -207q-86 -87 -206 -138t-238 -51t-218 32q-190 62 -316 230
q-127 168 -127 385q0 132 51 252q51 121 138 207q86 86 206 137t252 51z" />
    <glyph glyph-name="uniE127" unicode="check&#x2d;o&#x2d;circle" 
d="M628 636q0 30 22 52t51 21q30 0 52 -21l87 -87l242 241q21 22 51 22t51 -22l2 -1q21 -21 21 -51t-21 -51l-306 -306q-16 -16 -40 -16t-40 16l-151 151q-21 22 -21 52zM900 137q104 0 198 40q94 41 164 109q68 68 108 162t41 199q-1 105 -41 199t-108 162t-164 110
q-94 40 -198 40t-198 -40t-164 -110q-68 -68 -108 -162t-41 -199q1 -105 41 -199t108 -162t164 -109q94 -40 198 -40zM900 1295q132 1 252 -51t206 -138q87 -86 138 -207q51 -119 51 -251t-51 -252t-138 -206q-86 -86 -206 -138t-252 -52t-252 52t-206 138q-87 86 -138 206
t-51 252t51 251q51 121 138 207q86 86 206 138t252 51z" />
    <glyph glyph-name="uniE128" unicode="delete&#x2d;o&#x2d;circle" 
d="M1133 466q1 -24 -17 -42t-43 -17q-25 0 -42 17l-126 126q-5 5 -10 0l-126 -126q-17 -17 -42 -17q-25 -1 -43 17t-17 42q0 24 17 43l127 126q4 5 0 10l-127 126q-17 17 -17 42t18 43q19 18 43 17q24 0 41 -17l126 -127q5 -4 10 0l126 127q19 17 43 17t42 -18
q18 -19 17 -43q0 -24 -17 -41l-126 -126q-5 -5 0 -10l126 -126q17 -19 17 -43zM900 137q104 0 198 40q94 41 164 109q68 68 108 162t41 199q-1 105 -41 199t-108 162t-164 110q-94 40 -198 40t-198 -40t-164 -110q-68 -68 -108 -162t-41 -199q1 -105 41 -199t108 -162
t164 -109q94 -40 198 -40zM900 1295q132 1 252 -51t206 -138q87 -86 138 -207q51 -119 51 -251t-51 -252t-138 -206q-86 -86 -206 -138t-252 -52t-252 52t-206 138q-87 86 -138 206t-51 252t51 251q51 121 138 207q86 86 206 138t252 51z" />
    <glyph glyph-name="uniE131" unicode="check&#x2d;circle" 
d="M1209 790q0 30 -21 51l-1 2q-21 21 -51 21t-51 -21l-242 -242l-88 87q-21 22 -51 22t-52 -22t-22 -52t21 -51l151 -151q16 -17 40 -17t41 17l305 305q21 21 21 51zM900 1294q132 0 252 -51t206 -138q87 -87 138 -207t51 -238q-1 -118 -33 -217q-62 -190 -229 -316
q-168 -127 -385 -127q-132 0 -252 51t-206 138q-87 87 -138 207t-51 251t51 251t138 207q86 87 206 138t252 51z" />
    <glyph glyph-name="uniE132" unicode="delete&#x2d;circle" 
d="M1133 820q1 24 -17 43q-18 18 -43 18t-42 -18l-126 -126q-5 -5 -10 0l-126 126q-17 18 -41 18t-43 -18q-18 -19 -18 -43t17 -42l126 -126q5 -5 0 -9l-126 -127q-17 -18 -17 -42t17 -42h1q17 -18 42 -18t42 18l126 126q5 4 10 0l126 -126q17 -18 42 -18t42 18h1
q17 18 17 42t-17 42l-126 127q-5 4 0 9l126 126q17 18 17 42zM900 1295q132 1 252 -51t206 -138q87 -86 138 -207q51 -119 51 -251t-51 -252t-138 -206q-86 -86 -206 -138t-252 -52t-252 52t-206 138q-87 86 -138 206t-51 252t51 251q51 121 138 207q86 86 206 138t252 51z
" />
    <glyph glyph-name="uniE133" unicode="return&#x2d;left" 
d="M809 218q-25 0 -35 -16q-9 -16 -9 -27v-116q-1 -23 -21 -33t-38 5l-345 288q-17 15 -17 37t17 38l345 287q18 15 38 5t21 -32v-115q0 -18 13 -31t31 -13h252q19 0 31 13t12 31v262q0 18 -12 31t-31 13h-582q-20 1 -35 15t-15 35v176q0 21 15 35t35 15h805q40 0 68 -28
t29 -68v-711q-1 -40 -29 -68t-68 -28h-475z" />
    <glyph glyph-name="uniE134" unicode="return&#x2d;right" 
d="M999 218h-475q-40 0 -68 28t-29 68v711q1 40 29 68t68 28h804q21 -1 36 -15t15 -35v-176q0 -21 -15 -35t-36 -15h-581q-19 0 -31 -13t-12 -31v-262q0 -18 12 -31t31 -13h252q18 0 31 13t13 31v115q1 22 21 32t37 -5l345 -287q18 -16 18 -38t-18 -37l-345 -288
q-17 -15 -37 -5t-21 33v116q0 19 -13 31t-31 12z" />
    <glyph glyph-name="uniE135" unicode="traffic" 
d="M722 511q0 -21 14 -35t35 -14h670q22 0 37 -16t15 -36v-174q0 -30 -19 -41t-33 -11h-670q-21 0 -35 -14t-14 -35v-111q0 -22 -20 -32t-39 4l-346 289q-17 14 -17 37t17 37l346 289q19 14 39 4t20 -32v-109zM1071 1145v109q1 22 21 32t38 -4l346 -288q17 -15 17 -38
t-17 -37l-346 -288q-18 -15 -38 -5t-21 32v111q-1 21 -15 35t-34 14h-670q-22 0 -37 15t-15 37v174q0 20 15 36t37 16h670q29 0 39 18t10 31z" />
    <glyph glyph-name="uniE136" unicode="back" 
d="M778 1064v-135q0 -39 26 -67t65 -32q215 -20 416 -159t308 -404q7 -19 -3 -35t-28 -18t-33 9q-218 199 -657 197q-38 0 -66 -28t-28 -66v-171q0 -29 -26 -40t-47 8l-461 427q-28 26 -28 66t29 67l460 413q21 20 47 8t26 -40z" />
    <glyph glyph-name="uniE137" unicode="forward" 
d="M1038 1064q0 28 26 40t47 -8l460 -413q29 -26 29 -66t-28 -67l-460 -427q-22 -19 -48 -7t-26 39v172q0 39 -28 67t-66 27q-439 1 -656 -197q-26 -22 -43 -9q-33 25 -22 52q157 380 515 515q104 39 209 49q39 3 65 31t26 67v135z" />
    <glyph glyph-name="uniE138" unicode="contract" 
d="M1026 122v305q0 27 20 47t46 19h305q29 -1 40 -27t-9 -47l-79 -79q-13 -12 -13 -30t13 -31l170 -170q22 -23 22 -55q-1 -32 -23 -54t-54 -22t-53 22l-170 170q-13 13 -31 13t-31 -13l-79 -79q-22 -21 -48 -9t-26 40zM403 494h305q26 0 46 -20t20 -47v-305q0 -29 -26 -40
t-48 9l-79 79q-13 13 -31 13t-30 -13l-170 -170q-22 -22 -54 -22t-54 22t-23 54q0 32 22 54l170 171q13 12 13 30t-13 31l-79 79q-22 21 -10 48t41 27zM774 1116v-305q0 -27 -20 -47t-46 -20h-305q-29 0 -40 27t9 48l79 79q13 12 13 30t-13 31l-170 170q-22 21 -22 53t22 54
l1 2q22 22 54 22t53 -22l170 -171q13 -12 31 -12t31 12l79 80q22 20 48 9t26 -40zM1397 744h-305q-26 0 -46 20t-20 47v305q0 29 26 40t48 -9l79 -79q13 -13 31 -13t30 13l170 170q22 22 54 22t54 -23t23 -54q0 -31 -22 -54l-170 -170q-13 -12 -13 -30t13 -31l79 -80
q22 -20 10 -47t-41 -27z" />
    <glyph glyph-name="uniE141" unicode="expand" 
d="M1499 372v-305q0 -27 -20 -47t-47 -20h-305q-29 0 -40 27t9 47l79 79q13 13 13 31t-13 31l-170 170q-22 21 -22 53q1 32 23 55t54 23t53 -23l171 -170q12 -13 30 -13t31 13l79 80q21 20 48 9t27 -40zM673 0h-305q-38 0 -57 34q-9 16 -9 33v305q0 29 26 40t48 -10l79 -79
q13 -12 31 -12t30 12l170 171q23 22 54 22t54 -22l1 -2q22 -22 22 -54t-22 -53l-170 -170q-13 -13 -13 -31t13 -30l79 -80q22 -20 10 -47t-41 -27zM301 825v305q0 28 20 48t47 19h305q29 0 40 -27t-9 -47l-79 -79q-13 -13 -13 -31t13 -31l170 -170q22 -22 22 -54
q-1 -32 -23 -54t-54 -22t-53 22l-171 170q-12 13 -30 13t-31 -13l-79 -80q-21 -20 -48 -9t-27 40zM1127 1197h305q26 1 46 -19t20 -48v-305q0 -29 -26 -40t-48 10l-79 79q-13 12 -31 12t-30 -12l-170 -170q-23 -23 -54 -23t-54 23q-23 22 -23 54t22 54l170 170q13 13 13 31
t-13 31l-79 79q-22 20 -10 47t41 27z" />
    <glyph glyph-name="uniE142" unicode="exit&#x2d;fullscreen" 
d="M286 331h204q19 0 32 -13t13 -32v-204q0 -20 -18 -28t-32 7l-52 53q-9 9 -21 9t-21 -9l-114 -114q-15 -15 -36 -15t-36 15v1q-15 15 -15 36t15 36l114 114q8 8 8 20t-8 21l-54 53q-13 14 -5 32t26 18zM1265 82v204q0 19 13 32t31 13h205q18 0 26 -18t-6 -32l-53 -53
q-8 -8 -8 -20t8 -21l114 -114q15 -15 15 -36t-15 -36v-1q-15 -15 -36 -15t-36 15l-114 114q-9 9 -21 9t-20 -9l-54 -53q-13 -15 -31 -7t-18 28zM669 369q-67 0 -93 62q-8 19 -8 40v312q0 41 30 71t71 30h462q41 0 71 -30t30 -71v-312q0 -42 -30 -72t-71 -30h-462zM535 1170
v-204q0 -19 -13 -32t-31 -13h-205q-18 0 -26 18t6 32l53 53q8 8 8 20t-8 21l-114 114q-15 15 -15 36t15 36v1q15 14 36 14t36 -14l114 -114q9 -9 21 -9t21 9l53 53q13 15 31 7t18 -28zM1514 921h-204q-19 0 -32 13t-13 32v204q0 20 18 28t32 -7l52 -53q9 -9 21 -9t21 9
l114 114q15 15 36 15t36 -15v-1q15 -15 15 -36t-15 -36l-114 -114q-8 -8 -8 -20t8 -21l54 -53q13 -14 5 -32t-26 -18z" />
    <glyph glyph-name="uniE143" unicode="expand&#x2d;window" 
d="M722 269q0 -18 13 -31l80 -79q20 -21 9 -47t-40 -27h-305q-27 -1 -47 19t-20 47v305q0 28 27 40t47 -9l79 -79q13 -13 31 -13t31 13l438 436q13 13 13 31t-13 31l-80 79q-20 21 -9 47t40 27h305q38 0 58 -33q9 -15 9 -33v-305q0 -28 -27 -40t-47 9l-79 79q-13 13 -31 13
t-31 -13l-438 -436q-13 -13 -13 -31z" />
    <glyph glyph-name="uniE144" unicode="refresh" 
d="M901 1131v-83q0 -17 12 -29t29 -14q128 -9 234 -79t166 -182q61 -112 61 -241q0 -231 -181 -386q-107 -91 -266 -113q-76 -10 -156 6q-147 28 -255 136t-133 235q-45 231 70 403q20 28 54 34t61 -15q28 -14 35 -50t-12 -64q-57 -83 -57 -173t34 -159q33 -69 89 -115
t132 -64q76 -20 163 -2t157 88t92 167q20 95 -12 185t-104 148q-71 58 -162 72q-20 3 -36 -10t-15 -33v-76q0 -15 -13 -21t-24 2l-253 192q-17 12 -17 34t17 35l253 190q11 9 24 3t13 -21z" />
    <glyph glyph-name="uniE145" unicode="sync" 
d="M397 504q0 152 84 278q19 28 53 34t61 -15q28 -14 34 -49q7 -36 -19 -76t-43 -118t15 -168t104 -147q71 -58 163 -72q28 -4 39 13t11 30v76q0 15 13 21t24 -2l253 -192q17 -13 17 -35t-17 -34l-253 -190q-11 -8 -24 -2t-13 20v83q0 17 -12 29t-29 14q-195 16 -328 160
t-133 342zM1403 490q0 -141 -84 -267q-19 -27 -53 -33t-61 14q-28 14 -34 49q-7 35 19 75t41 108q30 136 -54 256q-84 121 -226 142q-32 6 -46 -24q-4 -8 -4 -19v-77q0 -14 -13 -20t-24 2l-253 191q-17 13 -17 35t17 34l253 191q11 9 24 3t13 -21v-83q0 -18 12 -30t29 -13
q128 -11 234 -80t166 -181q61 -112 61 -252z" />
    <glyph glyph-name="uniE146" unicode="cycle" 
d="M1299 214q-77 -109 -195 -166t-248 -49q-33 3 -55 29t-20 59v2q3 33 27 56t57 21q81 -4 156 28t127 97q14 15 10 35t-22 30l-66 39q-12 7 -12 21t15 20l292 123q21 7 39 -3t20 -31l39 -315q2 -14 -10 -22t-24 -1l-72 42q-35 19 -58 -15zM436 284q-56 123 -46 253t82 238
q38 59 115 21q27 -20 35 -52t-11 -59q-43 -68 -53 -149t20 -159q7 -19 26 -26t37 3l66 39q12 7 24 -1t10 -22l-39 -315q-4 -21 -22 -32t-38 -2l-291 123q-15 6 -15 20t12 21l72 42q16 8 20 25t-4 32zM887 784v-76q0 -14 -13 -20t-24 2l-253 191q-17 13 -17 35t17 34l253 191
q11 8 24 2t13 -21v-82q0 -18 12 -30t29 -14q134 -11 242 -85t166 -191q16 -30 4 -62t-43 -47l-1 -1q-30 -14 -62 -4t-47 39q-36 72 -102 121t-147 62q-20 3 -36 -10t-15 -34z" />
    <glyph glyph-name="uniE147" unicode="repeat" 
d="M1121 171h-333q-18 -1 -30 -13t-13 -30v-81q0 -15 -13 -21t-24 2l-252 190q-18 13 -18 35t18 35l252 189q11 9 24 3t13 -21v-78q1 -17 13 -30t30 -13h332q64 0 120 30t88 84q52 88 36 177q-6 32 10 60q16 27 44 35t50 2t40 -23q17 -18 21 -42q20 -115 -16 -212t-95 -156
q-122 -122 -297 -122zM679 973h333q18 1 30 13t13 30v81q0 15 13 21t24 -3l252 -189q18 -13 18 -35t-18 -35l-252 -189q-12 -9 -24 -3t-13 21v78q-1 17 -13 30t-30 13h-332q-86 0 -154 -52q-33 -26 -54 -62q-52 -88 -36 -177q6 -32 -10 -60t-50 -38q-34 -11 -66 9t-39 57
q-20 115 23 232t150 187t235 71z" />
    <glyph glyph-name="uniE148" unicode="bar&#x2d;chart" 
d="M299 -48q-42 0 -72 30t-30 71v313q0 41 30 71t72 30h127q68 0 94 -62q8 -19 8 -39v-313q0 -41 -30 -71t-72 -30h-127zM1373 -48q-41 0 -71 30t-30 71v810q0 41 30 71t71 30h128q42 0 72 -30t30 -71v-810q0 -41 -30 -71t-72 -30h-128zM836 -48q-42 0 -72 30t-29 71v1308
q-1 41 29 71t72 30h128q42 0 72 -30t29 -71v-1308q1 -41 -29 -71t-72 -30h-128z" />
    <glyph glyph-name="uniE151" unicode="bar&#x2d;chart&#x2d;up" 
d="M157 -48q-42 0 -71 30t-29 70v59q0 41 29 71t71 29h130q41 1 71 -29t29 -71v-59q1 -40 -29 -70t-71 -30h-130zM609 -48q-42 0 -71 30t-29 70v315q0 41 29 71t71 29h130q42 1 71 -29t29 -71v-315q0 -40 -29 -70t-71 -30h-130zM1061 -48q-41 0 -71 30t-29 70v812
q0 42 29 71t71 29h130q42 0 71 -29t29 -71v-812q0 -40 -29 -70t-71 -30h-130zM1513 -48q-41 0 -71 30t-29 70v1310q-1 40 29 70t71 30h130q42 0 71 -30t29 -70v-1310q0 -40 -29 -70t-71 -30h-130z" />
    <glyph glyph-name="uniE152" unicode="stats&#x2d;up" 
d="M614 724q30 0 51 -21l257 -257q16 -14 36 -14t35 14l262 262q14 16 14 36t-14 35l-92 92q-24 23 -11 54t46 31h352q32 0 54 -22t23 -55v-351q0 -34 -31 -47t-54 11l-91 91q-15 15 -36 15t-35 -15l-376 -374q-18 -20 -46 -20t-48 20l-261 261q-14 14 -35 14t-35 -14
l-257 -257q-25 -25 -61 -25t-62 26q-27 26 -27 62t26 62l365 365q21 21 51 21z" />
    <glyph glyph-name="uniE153" unicode="stats&#x2d;down" 
d="M261 956q36 0 61 -25l257 -257q14 -14 35 -14t35 14l261 261q20 20 48 20t46 -20l376 -374q14 -15 35 -15t36 15l91 91q23 24 54 11t31 -47v-351q-1 -33 -23 -55t-54 -22h-352q-33 0 -46 31t11 54l92 92q14 15 14 35t-14 36l-262 262q-15 14 -35 14t-36 -14l-257 -257
q-21 -21 -51 -21t-51 21l-365 365q-26 26 -26 62t27 62q26 26 62 26z" />
    <glyph glyph-name="uniE154" unicode="stats&#x2d;easel&#x2d;up" 
d="M293 100h1214q20 0 35 -14t15 -36t-15 -36t-35 -14h-67q-20 0 -32 -16t-7 -35l28 -105q6 -20 -7 -41t-35 -22q-45 0 -54 38l-35 131q-6 22 -24 36t-41 14h-669q-22 0 -40 -14t-24 -36l-34 -132q-9 -37 -48 -37q-38 0 -48 36q-4 13 -1 26l27 107q5 18 -7 34t-31 16h-65
q-20 0 -35 14t-15 36t15 36t35 14zM1318 714v204q0 18 -13 31t-31 13h-203q-19 0 -27 -18t6 -31l53 -53q8 -9 8 -21t-8 -20l-151 -152q-9 -8 -21 -8t-20 8l-148 149q-13 12 -30 12t-29 -12l-211 -211q-15 -15 -15 -36t16 -36q14 -15 35 -15t36 15l148 148q8 9 20 9t21 -9
l150 -151q11 -11 27 -11t28 11l216 217q9 8 21 8t20 -8l53 -53q13 -14 31 -6t18 26zM1468 175h-1137q-35 0 -61 26t-25 62l15 901q2 51 44 74q20 11 43 11h1104q35 -1 61 -25t26 -60l17 -900q1 -37 -25 -63t-62 -26zM989 1330h-173q-22 0 -36 14t-13 33q0 41 41 51
q37 11 40 21q3 11 3 25q-1 14 15 26t36 12t36 -12t16 -31t9 -27t35 -14q40 -10 40 -51q0 -19 -14 -33t-35 -14z" />
    <glyph glyph-name="uniE155" unicode="stats&#x2d;easel&#x2d;down" 
d="M293 100h1214q20 0 35 -14t15 -36t-15 -36t-35 -14h-67q-20 0 -32 -16t-7 -35l28 -105q6 -20 -7 -41t-35 -22q-45 0 -54 38l-35 131q-6 22 -24 36t-41 14h-669q-22 0 -40 -14t-24 -36l-34 -132q-9 -37 -43 -37t-47 21q-12 21 -7 41l27 107q5 18 -7 34t-31 16h-65
q-20 0 -35 14t-15 36t15 36t35 14zM1075 468h205q19 0 32 14t13 31v205q0 18 -18 26t-32 -5l-53 -53q-8 -9 -20 -9t-21 9l-219 218q-11 11 -27 11t-27 -11l-152 -152q-9 -9 -21 -9t-20 9l-150 149q-15 15 -36 15t-35 -15t-16 -37q0 -22 15 -36l213 -212q12 -13 30 -13t29 13
l149 149q9 9 21 9t20 -9l153 -152q9 -9 9 -21t-9 -20l-53 -54q-15 -14 -7 -32t27 -18zM1468 175h-1137q-35 0 -61 26t-25 62l15 901q2 51 44 74q20 11 43 11h1104q50 0 75 -42q12 -20 12 -43l17 -900q1 -37 -25 -63t-62 -26zM989 1330h-173q-22 0 -36 14t-13 33q0 41 41 51
q37 11 40 21q3 11 3 25q-1 14 15 26t36 12t36 -12t16 -31t9 -27t35 -14q40 -10 40 -51q0 -19 -14 -33t-35 -14z" />
    <glyph glyph-name="uniE156" unicode="bar&#x2d;chart&#x2d;easel" 
d="M293 100h1214q20 0 35 -14t15 -36t-15 -36t-35 -14h-67q-20 0 -32 -16t-7 -35l28 -105q6 -20 -7 -41t-35 -22q-45 0 -54 38l-35 131q-6 22 -24 36t-41 14h-669q-22 0 -40 -14t-24 -36l-34 -132q-9 -37 -48 -37q-38 0 -48 36q-4 13 -1 26l27 107q5 18 -7 34t-31 16h-65
q-20 0 -35 14t-15 36t15 36t35 14zM710 458v115q0 21 -15 36t-36 15h-59q-21 0 -36 -15t-15 -36l-5 -115q0 -21 15 -36t36 -15h64q21 0 36 15t15 36zM1134 407h64q21 0 36 15t15 36l-7 326q0 21 -15 36t-36 15h-57q-21 0 -36 -15t-15 -36v-326q0 -21 15 -36t36 -15zM979 458
v532q-1 22 -15 36t-35 14h-64q-21 0 -36 -14t-15 -36v-532q0 -21 15 -36t36 -15h64q21 0 35 15t15 36zM1468 175h-1137q-35 0 -61 26t-25 62l15 901q2 51 44 74q20 11 43 11h1104q35 -1 61 -25t26 -60l17 -900q1 -37 -25 -63t-62 -26zM989 1330h-173q-22 0 -36 14t-13 33
q0 41 41 51q37 11 40 21q3 11 3 25q-1 14 15 26t36 12t36 -12t16 -31t9 -27t35 -14q40 -10 40 -51q0 -19 -14 -33t-35 -14z" />
    <glyph glyph-name="uniE157" unicode="window&#x2d;down" 
d="M900 663q32 0 54 -22t22 -54v-285q0 -18 13 -31t31 -13h112q29 0 40 -26t-9 -48l-216 -216q-19 -20 -47 -20t-47 20l-216 216q-20 22 -9 48t40 26h112q18 0 30 13t13 31v285q0 32 23 54q22 22 54 22zM1458 1207q24 -1 41 17t17 42t-17 41t-41 17t-41 -17t-17 -41t17 -42
t41 -17zM1280 1207q16 0 37 12t21 42q0 29 -17 46t-41 17t-41 -17t-17 -37t8 -34t20 -21q14 -8 30 -8zM1102 1207q24 -1 41 17t17 42t-17 41t-41 17t-41 -17t-17 -41t17 -42t41 -17zM1184 8q0 22 8 37q18 32 55 32h221q18 0 32 14t14 33v925q0 19 -14 33t-32 14h-1138
q-20 0 -34 -14t-13 -33v-925q-1 -19 13 -33t34 -14h224q26 0 44 -19q18 -20 19 -46q-1 -26 -19 -44t-44 -19h-304q-38 -1 -66 27t-28 67v1300q0 39 28 67t66 27h1300q38 1 66 -27t28 -67v-1300q0 -39 -28 -67t-66 -27h-303q-27 1 -45 19t-18 40z" />
    <glyph glyph-name="uniE158" unicode="window&#x2d;up" 
d="M900 -51q-32 0 -54 22t-22 54v285q0 18 -13 31t-31 13h-112q-29 0 -40 27t9 47l216 216q19 19 47 19t47 -19l216 -216q20 -20 9 -47t-40 -27h-112q-18 0 -30 -13t-13 -31v-285q0 -31 -23 -53q-22 -22 -54 -23zM1458 1207q24 -1 41 17t17 42t-17 41t-41 17t-41 -17
t-17 -41t17 -42t41 -17zM1280 1207q16 0 37 12t21 42q0 29 -17 46t-41 17t-41 -17t-17 -37t8 -34t20 -21q14 -8 30 -8zM1102 1207q24 -1 41 17t17 42t-17 41t-41 17t-41 -17t-17 -41t17 -42t41 -17zM1184 8q0 22 8 37q18 32 55 32h221q18 0 32 14t14 33v925q0 19 -14 33
t-32 14h-1138q-20 0 -34 -14t-13 -33v-925q-1 -19 13 -33t34 -14h224q26 0 44 -19q18 -20 19 -46q-1 -26 -19 -44t-44 -19h-304q-38 -1 -66 27t-28 67v1300q0 39 28 67t66 27h1300q38 1 66 -27t28 -67v-1300q0 -39 -28 -67t-66 -27h-303q-27 1 -45 19t-18 40z" />
    <glyph glyph-name="uniE161" unicode="window&#x2d;maximi&#x7a;e" 
d="M666 318q0 30 21 50l355 355q12 12 12 29t-12 29l-74 75q-20 19 -10 44t39 25h286q27 -1 45 -19t18 -43v-287q0 -28 -26 -38t-44 9l-74 74q-12 12 -29 12t-29 -12l-356 -355q-20 -20 -50 -20t-51 21t-21 51zM316 83h1165q33 0 33 33v947q0 13 -10 23t-23 10h-1165
q-14 0 -24 -10t-9 -23v-947q-1 -14 9 -24t24 -9zM156 41v1308q0 37 26 63t64 27h1308q38 -1 64 -27t26 -63v-1308q0 -52 -44 -78q-20 -12 -46 -12h-1308q-38 0 -64 26t-26 64z" />
    <glyph glyph-name="uniE162" unicode="window&#x2d;minimi&#x7a;e" 
d="M1348 856q0 -30 -20 -50l-356 -356q-12 -12 -12 -29t12 -29l74 -74q20 -20 10 -45t-38 -25h-287q-27 0 -45 18t-18 45v286q0 27 26 37t44 -8l74 -74q12 -12 29 -12t29 12l356 356q21 20 51 20q31 0 51 -21t20 -51zM316 83h1165q33 0 33 33v947q0 13 -10 23t-23 10h-1165
q-14 0 -24 -10t-9 -23v-947q-1 -14 9 -24t24 -9zM156 41v1308q0 37 26 63t64 27h1308q38 -1 64 -27t26 -63v-1308q0 -52 -44 -78q-20 -12 -46 -12h-1308q-38 0 -64 26t-26 64z" />
    <glyph glyph-name="uniE163" unicode="login" 
d="M779 844v88q1 18 17 26t30 -4l277 -231q14 -12 14 -30t-14 -30l-277 -230q-14 -12 -30 -4t-17 26v89q1 16 -11 28t-28 11h-213q-17 0 -29 12t-13 29v139q1 18 13 30t29 12h213q16 -1 28 11t11 28zM426 1314v1q0 34 22 46q22 13 37 13h802q35 0 61 -26t26 -61v-1200
q0 -35 -26 -61t-61 -26h-802q-23 0 -41 17t-18 41v2q0 24 18 41t41 17h732q17 0 29 12t12 29v1056q0 17 -12 29t-29 12h-732q-23 0 -41 17t-18 41z" />
    <glyph glyph-name="uniE164" unicode="logout" 
d="M823 542v-87q-1 -18 -17 -26t-30 4l-277 230q-14 12 -14 30t14 30l277 231q14 12 30 4t17 -26v-89q-1 -15 11 -27t28 -12h213q17 0 29 -12t13 -30v-139q-1 -17 -13 -29t-29 -13h-213q-16 0 -28 -11t-11 -28zM426 1314v1q0 34 22 46q22 13 37 13h802q35 0 61 -26t26 -61
v-1200q0 -35 -26 -61t-61 -26h-802q-23 0 -41 17t-18 41v2q0 24 18 41t41 17h732q17 0 29 12t12 29v1056q0 17 -12 29t-29 12h-732q-23 0 -41 17t-18 41z" />
    <glyph glyph-name="uniE165" unicode="panel&#x2d;close" 
d="M620 763h554q20 0 28 -18t-4 -34l-263 -320q-15 -18 -38 -18t-38 18l-263 320q-12 16 -4 34t28 18zM316 83h1165q33 0 33 33v947q0 13 -10 23t-23 10h-1165q-14 0 -24 -10t-9 -23v-947q-1 -14 9 -24t24 -9zM156 41v1308q0 37 26 63t64 27h1308q38 -1 64 -27t26 -63v-1308
q0 -52 -44 -78q-20 -12 -46 -12h-1308q-38 0 -64 26t-26 64z" />
    <glyph glyph-name="uniE166" unicode="panel&#x2d;show" 
d="M1174 449h-554q-20 1 -28 19t4 33l263 320q15 18 38 18t38 -18l263 -320q12 -15 4 -33t-28 -19zM316 83h1165q33 0 33 33v947q0 13 -10 23t-23 10h-1165q-14 0 -24 -10t-9 -23v-947q-1 -14 9 -24t24 -9zM156 41v1308q0 37 26 63t64 27h1308q38 -1 64 -27t26 -63v-1308
q0 -52 -44 -78q-20 -12 -46 -12h-1308q-38 0 -64 26t-26 64z" />
    <glyph glyph-name="uniE167" unicode="command&#x2d;line" 
d="M1107 620q0 -18 -13 -32t-32 -14h-246q-18 0 -31 14t-13 32t13 31t31 13h246q19 0 32 -13t13 -31zM498 565q-18 0 -31 13q-13 14 -13 32t13 31l101 101q18 18 0 33l-101 101q-13 14 -13 32q0 35 30 42q30 8 46 -11l164 -164q7 -7 7 -17t-7 -16l-164 -164q-14 -13 -32 -13
zM316 83h1165q33 0 33 33v947q0 13 -10 23t-23 10h-1165q-14 0 -24 -10t-9 -23v-947q-1 -14 9 -24t24 -9zM156 41v1308q0 37 26 63t64 27h1308q38 -1 64 -27t26 -63v-1308q0 -52 -44 -78q-20 -12 -46 -12h-1308q-38 0 -64 26t-26 64z" />
    <glyph glyph-name="uniE168" unicode="window" 
d="M330 77h1138q18 0 32 14t14 33v925q0 19 -14 33t-32 14h-1138q-20 0 -34 -14t-13 -33v-925q-1 -19 13 -33t34 -14zM1458 1207q24 -1 41 17t17 42t-17 41t-41 17t-41 -17t-17 -41t17 -42t41 -17zM1280 1207q16 0 37 12t21 42q0 29 -17 46t-41 17t-41 -17t-17 -37t8 -34
t20 -21q14 -8 30 -8zM1102 1207q24 -1 41 17t17 42t-17 41t-41 17t-41 -17t-17 -41t17 -42t41 -17zM1550 -51h-1300q-38 -1 -66 27t-28 67v1300q0 39 28 67t66 27h1300q38 1 66 -27t28 -67v-1300q0 -39 -28 -67t-66 -27z" />
    <glyph glyph-name="uniE171" unicode="addwindow" 
d="M1014 654h117q27 0 46 -19t19 -41t-9 -38q-20 -33 -56 -32h-117q-22 0 -36 -14t-14 -36v-117q0 -26 -19 -45t-45 -19t-46 19q-19 19 -19 45v117q-1 22 -15 36t-35 14h-117q-27 0 -46 19t-19 41t9 38q20 32 56 32h117q21 0 35 14t15 36v117q0 26 19 45t41 19q22 -1 37 -9
q32 -18 32 -55v-117q0 -22 14 -36t36 -14zM330 77h1138q18 -1 32 13t14 34v925q0 19 -14 33t-32 14h-1138q-20 0 -34 -14t-13 -33v-925q-1 -20 13 -34t34 -13zM1458 1207q24 -1 41 17t17 42t-17 41t-37 17t-41 -12t-21 -41t17 -47t41 -17zM1280 1207q24 -1 41 17t17 42
t-17 41t-37 17t-41 -12t-21 -41t17 -47t41 -17zM1102 1207q24 -1 41 17t17 42t-17 41t-37 17t-41 -12t-21 -41t17 -47t41 -17zM1550 -51h-1300q-38 -1 -66 27t-28 67v1301q0 38 28 66t66 27h1300q38 1 66 -27t28 -66v-1301q0 -61 -57 -87q-17 -8 -37 -7z" />
    <glyph glyph-name="uniE172" unicode="window&#x2d;minus" 
d="M1156 589q0 -27 -19 -46t-46 -19h-382q-27 0 -46 19t-19 46t19 46t46 19h382q27 0 46 -19t19 -46zM330 77h1138q18 0 32 14t14 33v925q0 19 -14 33t-32 14h-1138q-20 0 -34 -14t-13 -33v-925q-1 -19 13 -33t34 -14zM1458 1207q24 -1 41 17t17 42t-17 41t-41 17t-41 -17
t-17 -41t17 -42t41 -17zM1280 1207q16 0 37 12t21 42q0 29 -17 46t-41 17t-41 -17t-17 -37t8 -34t20 -21q14 -8 30 -8zM1102 1207q24 -1 41 17t17 42t-17 41t-41 17t-41 -17t-17 -41t17 -42t41 -17zM1550 -51h-1300q-38 -1 -66 27t-28 67v1300q0 39 28 67t66 27h1300
q38 1 66 -27t28 -67v-1300q0 -39 -28 -67t-66 -27z" />
    <glyph glyph-name="uniE173" unicode="window&#x2d;check" 
d="M848 386q-22 0 -38 16l-154 154q-21 22 -21 52t21 52q22 22 52 21q30 0 52 -21l88 -89l241 242q22 21 52 21q29 0 51 -22t22 -52t-21 -51l-307 -307q-16 -16 -38 -16zM330 77h1138q18 0 32 14t14 33v925q0 19 -14 33t-32 14h-1138q-20 0 -34 -14t-13 -33v-925
q-1 -19 13 -33t34 -14zM1458 1207q24 -1 41 17t17 42t-17 41t-41 17t-41 -17t-17 -41t17 -42t41 -17zM1280 1207q16 0 37 12t21 42q0 29 -17 46t-41 17t-41 -17t-17 -37t8 -34t20 -21q14 -8 30 -8zM1102 1207q24 -1 41 17t17 42t-17 41t-41 17t-41 -17t-17 -41t17 -42
t41 -17zM1550 -51h-1300q-38 -1 -66 27t-28 67v1300q0 39 28 67t66 27h1300q38 1 66 -27t28 -67v-1300q0 -39 -28 -67t-66 -27z" />
    <glyph glyph-name="uniE174" unicode="window&#x2d;delete" 
d="M1133 424q1 -24 -17 -42t-43 -18t-42 18l-126 126q-5 5 -10 0l-126 -126q-19 -18 -43 -18t-42 18t-17 42q0 24 17 42l127 126q5 5 0 10l-127 126q-17 18 -17 42q-1 24 17 42t42 18t43 -18l126 -126q5 -5 10 0l126 126q17 18 42 18t43 -18t17 -42q0 -24 -18 -42l-126 -126
q-5 -5 0 -10l126 -126q18 -18 18 -42zM330 77h1138q18 0 32 14t14 33v925q0 19 -14 33t-32 14h-1138q-20 0 -34 -14t-13 -33v-925q-1 -19 13 -33t34 -14zM1458 1207q24 -1 41 17t17 42t-17 41t-41 17t-41 -17t-17 -41t17 -42t41 -17zM1280 1207q16 0 37 12t21 42
q0 29 -17 46t-41 17t-41 -17t-17 -37t8 -34t20 -21q14 -8 30 -8zM1102 1207q24 -1 41 17t17 42t-17 41t-41 17t-41 -17t-17 -41t17 -42t41 -17zM1550 -51h-1300q-38 -1 -66 27t-28 67v1300q0 39 28 67t66 27h1300q38 1 66 -27t28 -67v-1300q0 -39 -28 -67t-66 -27z" />
    <glyph glyph-name="uniE175" unicode="share&#x2d;right" 
d="M1509 473v-424q0 -35 -24 -59t-59 -24h-1123q-35 0 -59 24t-24 59v964q0 35 24 59t59 24h435q21 0 29 -11t-17 -30l-57 -44q-36 -28 -81 -28h-236q-17 -1 -30 -13t-13 -30v-818q0 -18 13 -30t30 -13h977q19 1 31 13t12 30v273q0 38 28 64l46 41q22 22 30 8q9 -13 9 -35z
M1230 1308q0 25 23 35t42 -6l410 -369q27 -22 27 -58t-26 -60l-410 -381q-18 -17 -42 -7t-24 36v153q0 49 -42 72q-20 11 -41 11q-392 2 -586 -175q-21 -19 -45 -3t-12 41q135 336 458 459q92 35 187 44q33 2 57 28t24 59v121z" />
    <glyph glyph-name="uniE176" unicode="share&#x2d;left" 
d="M422 395v-273q0 -18 12 -30t31 -13h976q19 1 31 13t12 30v818q0 18 -12 30t-31 13h-235q-45 0 -81 28l-57 44q-26 18 -18 30q9 11 30 11h435q35 0 59 -24t24 -59v-964q0 -35 -24 -59t-59 -24h-1123q-36 0 -60 24t-24 59v424q0 22 9 35t31 -8l46 -41q28 -26 28 -64z
M589 1308v-121q0 -33 24 -59t58 -28q192 -18 370 -143q178 -124 275 -360q10 -25 -14 -41t-44 3q-193 177 -585 175q-35 0 -59 -24t-25 -59v-153q0 -26 -23 -36t-42 7l-410 381q-26 24 -26 60t27 58l409 369q19 16 42 6t23 -35z" />
    <glyph glyph-name="uniE177" unicode="multiple&#x2d;windows" 
d="M354 122h884q18 0 31 12t13 31v639q0 18 -13 30t-31 13h-884q-18 -1 -30 -13t-13 -30v-639q1 -19 13 -31t30 -12zM191 90v990q1 38 27 64t63 26h1031q38 0 64 -26t26 -64v-990q0 -38 -26 -64t-64 -26h-1031q-37 0 -63 26t-27 64zM1549 235q-16 0 -30 8q-31 18 -31 52v916
q0 18 -13 31t-31 13h-958q-38 1 -55 39q-5 12 -5 30t18 35t42 17h1034q37 0 63 -26t26 -62v-993q0 -35 -22 -47q-22 -13 -38 -13z" />
    <glyph glyph-name="uniE178" unicode="list&#x2d;th&#x2d;lg" 
d="M994 5q-40 -1 -70 29t-30 71v40q0 41 30 71t70 29h573q42 1 71 -29t29 -71v-40q0 -41 -29 -71t-71 -29h-573zM994 377q-40 0 -70 29t-30 71v39q0 42 30 71t70 29h573q42 0 71 -29t29 -71v-39q0 -42 -29 -71t-71 -29h-573zM233 0q-42 0 -71 30t-29 70v416q0 42 29 71
t71 29h416q42 0 71 -29t29 -71v-416q0 -40 -29 -70t-71 -30h-416zM994 782q-40 0 -70 30t-30 70v40q0 40 30 70t70 30h573q42 0 71 -30t29 -70v-40q0 -40 -29 -70t-71 -30h-573zM994 1154q-40 0 -70 29t-30 71v40q0 40 30 70t70 30h573q42 0 71 -30t29 -70v-40
q0 -42 -29 -71t-71 -29h-573zM233 777q-42 -1 -71 29t-29 71v417q0 40 29 70t71 30h416q42 0 71 -30t29 -70v-417q0 -41 -29 -71t-71 -29h-416z" />
    <glyph glyph-name="uniE181" unicode="grid&#x2d;lg" 
d="M1080 -9q-44 -1 -76 31t-32 76v448q0 44 32 76t76 31h447q45 1 77 -31t31 -76v-448q1 -44 -31 -76t-77 -31h-447zM273 -9q-45 -1 -77 31t-31 76v448q-1 44 31 76t77 31h447q44 1 76 -31t32 -76v-448q0 -44 -32 -76t-76 -31h-447zM1080 800q-44 0 -76 32t-32 75v448
q0 43 32 75t76 32h447q45 0 77 -32t31 -75v-448q1 -43 -31 -75t-77 -32h-447zM273 800q-45 0 -77 32t-31 75v448q-1 43 31 75t77 32h447q44 0 76 -32t32 -75v-448q0 -43 -32 -75t-76 -32h-447z" />
    <glyph glyph-name="uniE182" unicode="grid" 
d="M1323 -26q-41 0 -71 29t-29 71v223q-1 41 29 71t71 29h223q42 1 71 -29t29 -71v-223q0 -42 -29 -71t-71 -29h-223zM788 -26q-40 0 -70 29t-30 71v223q0 41 30 71t70 29h224q40 1 70 -29t30 -71v-223q0 -42 -30 -71t-70 -29h-224zM254 -26q-42 0 -71 29t-29 71v223
q0 41 29 71t71 29h223q41 1 71 -29t29 -71v-223q1 -42 -29 -71t-71 -29h-223zM1323 506q-41 0 -71 30t-29 70v223q-1 42 29 71t71 29h223q42 0 71 -29t29 -71v-223q0 -40 -29 -70t-71 -30h-223zM788 506q-40 0 -70 30t-30 70v223q0 42 30 71t70 29h224q40 0 70 -29t30 -71
v-223q0 -40 -30 -70t-70 -30h-224zM254 506q-42 0 -71 30t-29 70v223q0 42 29 71t71 29h223q41 0 71 -29t29 -71v-223q1 -40 -29 -70t-71 -30h-223zM1323 1039q-41 0 -71 29t-29 71v223q-1 40 29 70t71 30h223q42 0 71 -30t29 -70v-223q0 -42 -29 -71t-71 -29h-223z
M788 1039q-40 0 -70 29t-30 71v223q0 40 30 70t70 30h224q40 0 70 -30t30 -70v-223q0 -42 -30 -71t-70 -29h-224zM254 1039q-42 0 -71 29t-29 71v223q0 40 29 70t71 30h223q41 0 71 -30t29 -70v-223q1 -42 -29 -71t-71 -29h-223z" />
    <glyph glyph-name="uniE183" unicode="list&#x2d;th" 
d="M820 0q-42 0 -71 30t-29 70v160q0 42 29 71t71 29h649q41 0 71 -29t29 -71v-160q1 -40 -29 -70t-71 -30h-649zM331 0q-41 0 -71 30t-29 70v160q-1 42 29 71t71 29h161q40 0 70 -29t30 -71v-160q0 -40 -30 -70t-70 -30h-161zM820 488q-42 0 -71 30t-29 70v161q0 41 29 71
t71 29h649q41 1 71 -29t29 -71v-161q1 -40 -29 -70t-71 -30h-649zM331 488q-41 0 -71 30t-29 70v161q-1 41 29 71t71 29h161q40 1 70 -29t30 -71v-161q0 -40 -30 -70t-70 -30h-161zM820 977q-42 0 -71 29t-29 71v160q0 42 29 71t71 29h649q41 0 71 -29t29 -71v-160
q1 -42 -29 -71t-71 -29h-649zM331 977q-41 0 -71 29t-29 71v160q-1 42 29 71t71 29h161q40 0 70 -29t30 -71v-160q0 -42 -30 -71t-70 -29h-161z" />
    <glyph glyph-name="uniE184" unicode="sidebar" 
d="M331 0q-41 0 -71 30t-29 70v160q-1 42 29 71t71 29h502q42 0 71 -29t29 -71v-160q0 -40 -29 -70t-71 -30h-502zM331 486q-41 0 -71 30t-29 70v161q-1 41 29 71t71 29h502q42 1 71 -29t29 -71v-161q0 -40 -29 -70t-71 -30h-502zM331 972q-41 0 -71 30t-29 70v161
q-1 41 29 71t71 29h502q42 1 71 -29t29 -71v-161q0 -40 -29 -70t-71 -30h-502zM1161 0q-41 0 -71 30t-29 70v1134q-1 42 29 71t71 29h308q41 0 71 -29t29 -71v-1134q1 -40 -29 -70t-71 -30h-308z" />
    <glyph glyph-name="uniE185" unicode="list&#x2d;bullet" 
d="M767 0q-36 0 -61 26t-25 61v119q0 36 25 62t61 25h724q35 1 61 -25t26 -62v-119q0 -35 -26 -61t-61 -26h-724zM515 136q0 -50 -43 -93q-44 -43 -104 -43t-103 43t-43 103t43 104q43 43 93 43q50 1 84 -19t54 -54t19 -84zM767 476q-36 0 -61 26t-25 61v120q0 36 25 61
t61 25h724q58 -1 80 -53q7 -16 7 -33v-120q0 -35 -26 -61t-61 -26h-724zM515 623q0 -61 -43 -104q-44 -43 -104 -43t-103 43t-43 104t43 103t103 43q60 -1 104 -43q43 -42 43 -103zM767 953q-35 -1 -61 25t-26 62v119q0 35 26 61t61 26h724q35 0 61 -26t26 -61v-119
q0 -36 -26 -62t-61 -25h-724zM515 1100q0 -60 -43 -104q-44 -43 -104 -43t-103 43q-43 44 -43 104t43 103t103 43t104 -43q43 -43 43 -103z" />
    <glyph glyph-name="uniE186" unicode="bars" 
d="M325 0q-35 0 -61 26t-26 61v119q0 36 26 62t61 25h1150q35 1 61 -25t26 -62v-119q0 -35 -26 -61t-61 -26h-1150zM325 477q-35 0 -61 25t-26 61v120q0 36 26 61t61 25h1150q35 0 61 -25t26 -61v-120q0 -51 -43 -75q-20 -12 -44 -11h-1150zM325 953q-35 -1 -61 25t-26 62
v119q0 35 26 61t61 26h1150q51 0 75 -43q12 -20 12 -44v-119q0 -52 -43 -76q-20 -12 -44 -11h-1150z" />
    <glyph glyph-name="uniE187" unicode="outdent" 
d="M767 0q-35 0 -61 26t-26 61v119q0 36 26 62t61 25h724q35 1 61 -25t26 -62v-119q0 -35 -26 -61t-61 -26h-724zM767 477q-35 0 -61 25t-26 61v120q0 36 26 61t61 25h724q35 0 61 -25t26 -61v-120q0 -36 -26 -61t-61 -25h-724zM490 781v-304q0 -25 -24 -37t-44 5l-185 152
q-15 13 -15 32t15 32l185 152q20 17 44 5t24 -37zM767 953q-35 -1 -61 25t-26 62v119q0 35 26 61t61 26h724q35 0 61 -26t26 -61v-119q0 -36 -26 -62t-61 -25h-724z" />
    <glyph glyph-name="uniE188" unicode="indent" 
d="M746 0q-36 0 -62 26t-25 61v119q-1 36 25 62t62 25h724q36 1 62 -25t25 -62v-119q1 -35 -25 -61t-62 -26h-724zM746 477q-36 0 -62 25t-25 61v120q-1 36 25 61t62 25h724q36 0 62 -25t25 -61v-120q1 -36 -25 -61t-62 -25h-724zM243 477v304q0 25 24 37t44 -5l186 -152
q14 -13 14 -32t-14 -31l-186 -153q-20 -17 -44 -5t-24 37zM746 953q-36 -1 -62 25t-25 62v119q-1 35 25 61t62 26h724q36 0 62 -26t25 -61v-119q1 -36 -25 -62t-62 -25h-724z" />
    <glyph glyph-name="uniE211" unicode="document" 
d="M556 113h732q11 -1 19 7t8 19v685q0 22 -16 38t-38 16l-229 -1q-14 -1 -24 9t-10 24l1 221q1 39 -33 58q-16 9 -34 9h-376q-11 0 -19 -8t-8 -19v-1032q0 -11 8 -19t19 -7zM502 1309h462q32 0 55 -23l389 -388q19 -20 19 -48v-767q0 -48 -41 -72q-19 -11 -42 -11h-842
q-35 0 -59 24t-24 59v1143q0 48 41 72q19 11 42 11z" />
    <glyph glyph-name="uniE212" unicode="text&#x2d;doc" 
d="M1048 380q0 -22 -15 -38t-37 -16h-286q-22 0 -37 16t-15 32q0 18 11 37t41 20h286q22 0 37 -15q15 -14 15 -36zM1176 648q0 -22 -15 -38t-37 -16h-414q-22 0 -37 16t-15 32q0 18 11 38q11 19 41 19h414q22 0 37 -15q15 -14 15 -36zM879 921q0 -18 -11 -37t-41 -19h-117
q-22 0 -37 15q-15 14 -15 36t15 38t37 15h117q22 0 37 -15t15 -33zM542 112h732q11 0 19 8t8 19v685q0 22 -16 38t-38 15l-229 -1q-14 0 -24 10t-9 24v221q1 27 -19 47t-48 20h-376q-11 0 -19 -8t-8 -19v-1032q0 -15 10 -21t17 -6zM488 1309h462q33 0 55 -23l389 -389
q20 -19 20 -47v-767q0 -35 -24 -59t-60 -24h-842q-35 0 -59 24t-24 59v1143q0 34 24 58t59 25z" />
    <glyph glyph-name="uniE213" unicode="&#x7a;ipped&#x2d;doc" 
d="M765 484h-50q-13 0 -23 -10t-10 -24v-41q0 -14 10 -24t23 -10h50q13 0 23 10t10 24v41q0 14 -10 24t-23 10zM1292 139v685q0 30 -20 42t-34 12l-229 -1q-14 -1 -24 9t-10 24l1 221q0 39 -34 58q-16 9 -33 9h-143q-11 0 -19 -8t-8 -19v-54q-1 -11 7 -19t19 -7h55
q10 1 18 -7t7 -19v-55q1 -10 -7 -18t-18 -7h-55q-26 0 -26 -26v-55q0 -10 8 -18t18 -8h55q10 0 18 -8t7 -17v-55q1 -10 -7 -18t-18 -8h-55q-10 0 -18 -8t-8 -18v-45q0 -13 10 -23t23 -10h45q12 0 21 -9t9 -22v-272q1 -27 -19 -47t-48 -20h-79q-27 0 -47 20t-19 47v381
q-1 10 7 18t18 8h53q26 0 26 27v53q1 10 -7 18t-19 8h-55q-10 0 -18 8t-7 18v55q-1 11 7 19t18 7h55q11 -1 19 7t7 19v54q1 11 -7 19t-19 7h-55q-10 -1 -18 7t-7 18v55q0 11 -8 19t-19 8h-73q-11 0 -19 -8t-8 -19v-1032q0 -11 8 -19t19 -7h732q11 -1 19 7t8 19zM1404 850
v-767q0 -35 -24 -59t-59 -24h-842q-35 0 -59 24t-24 59v1143q0 48 41 72q19 11 42 11h462q32 0 55 -23l389 -388q19 -20 19 -48z" />
    <glyph glyph-name="uniE214" unicode="text&#x2d;doc&#x2d;plus" 
d="M1322 65q0 17 16 17h42q12 0 20 8t9 21q-1 13 -9 21t-20 8h-42q-16 0 -16 17v41q0 12 -9 20t-21 9q-12 -1 -20 -9t-9 -20v-41q0 -17 -16 -17h-42q-13 0 -21 -8t-8 -21t8 -21t21 -8h42q16 0 16 -17v-41q0 -29 30 -29q13 1 21 9t8 20v41zM1292 307q82 1 140 -57t57 -139
q1 -81 -57 -139t-140 -57q-82 -1 -138 57q-58 58 -58 139t58 139q56 58 138 57zM1039 378q1 -22 -15 -36q-16 -16 -37 -16h-286q-22 0 -37 15t-15 37t15 36q15 16 37 16h286q22 0 37 -15t15 -37zM1167 650q0 -18 -11 -37t-41 -19h-414q-22 0 -37 15t-15 37t15 36
q15 16 37 16h414q22 0 37 -15t15 -33zM870 920q0 -18 -11 -37t-41 -19h-117q-22 0 -37 15t-15 37t15 37q15 16 37 16h117q20 1 36 -15t16 -34zM1009 50q0 -18 -16 -34t-39 -16h-475q-35 0 -59 24t-24 59v1143q0 34 24 58t59 25h462q32 0 55 -23l389 -388q19 -20 19 -48v-400
q0 -24 -16 -40t-40 -16t-40 16t-16 40v374q0 30 -20 42t-34 12l-229 -1q-20 0 -27 12t-7 21l1 221q0 39 -34 58q-16 9 -33 9h-376q-11 0 -19 -8t-8 -19v-1032q0 -11 8 -19t19 -7h421q37 1 51 -35q4 -10 4 -28z" />
    <glyph glyph-name="uniE215" unicode="text&#x2d;doc&#x2d;minus" 
d="M1205 82h175q12 0 20 8t9 21q-1 13 -9 21t-20 8h-175q-13 0 -21 -8t-8 -21t8 -21t21 -8zM1292 307q82 1 140 -57t57 -139q1 -81 -57 -139t-140 -57q-82 -1 -138 57q-58 58 -58 139t58 139q56 58 138 57zM1039 378q1 -22 -15 -36q-16 -16 -37 -16h-286q-22 0 -37 15
t-15 37t15 36q15 16 37 16h286q22 0 37 -15t15 -37zM1167 650q0 -18 -11 -37t-41 -19h-414q-22 0 -37 15t-15 37t15 36q15 16 37 16h414q22 0 37 -15t15 -33zM870 920q0 -18 -11 -37t-41 -19h-117q-22 0 -37 15t-15 37t15 37q15 16 37 16h117q20 1 36 -15t16 -34zM1009 50
q0 -18 -16 -34t-39 -16h-475q-35 0 -59 24t-24 59v1143q0 34 24 58t59 25h462q32 0 55 -23l389 -388q19 -20 19 -48v-400q0 -24 -16 -40t-40 -16t-40 16t-16 40v374q0 30 -20 42t-34 12l-229 -1q-20 0 -27 12t-7 21l1 221q0 39 -34 58q-16 9 -33 9h-376q-11 0 -19 -8t-8 -19
v-1032q0 -11 8 -19t19 -7h421q37 1 51 -35q4 -10 4 -28z" />
    <glyph glyph-name="uniE216" unicode="heart&#x2d;card" 
d="M900 505q-14 0 -24 9q-182 165 -206 216t-6 100t62 70q46 20 92 6t71 -55q4 -6 11 -6t11 6q25 41 71 55t92 -6q46 -21 62 -70q18 -50 -6 -100t-207 -217q-9 -8 -23 -8zM494 101h812q16 0 28 12t12 28v1153q0 16 -12 28t-28 12h-812q-16 0 -28 -12t-12 -28v-1153
q0 -16 12 -28t28 -12zM327 60v1315q0 35 25 61t61 26h974q36 0 61 -26t25 -61v-1315q0 -34 -25 -60t-61 -26h-974q-36 0 -61 26t-25 60z" />
    <glyph glyph-name="uniE217" unicode="diamond&#x2d;card" 
d="M900 471q-16 0 -26 13l-164 213q-16 20 0 41l163 213q10 13 26 13t27 -13l164 -213q16 -21 0 -41l-163 -213q-11 -13 -27 -13zM494 101h812q16 0 28 12t12 28v1153q0 16 -12 28t-28 12h-812q-16 0 -28 -12t-12 -28v-1153q0 -16 12 -28t28 -12zM327 60v1315q0 35 25 61
t61 26h974q36 0 61 -26t25 -61v-1315q0 -34 -25 -60t-61 -26h-974q-36 0 -61 26t-25 60z" />
    <glyph glyph-name="uniE218" unicode="spade&#x2d;card" 
d="M1028 480q-8 -2 -32 -4t-129 -3q-104 0 -104 20q0 8 22 26q60 49 60 66t-40 14q-40 -2 -70 16t-46 46q-16 27 -12 65t33 71q67 76 169 169q9 8 22 8t22 -8q101 -94 149 -148t53 -91t-11 -65t-45 -47q-30 -19 -59 -17t-40 -1t-14 -7t2 -12t10 -14t11 -12q14 -15 37 -33
t23 -24t-2 -9q-1 -4 -9 -6zM494 101h812q16 0 28 12t12 28v1153q0 16 -12 28t-28 12h-812q-16 0 -28 -12t-12 -28v-1153q0 -16 12 -28t28 -12zM327 60v1315q0 35 25 61t61 26h974q36 0 61 -26t25 -61v-1315q0 -34 -25 -60t-61 -26h-974q-36 0 -61 26t-25 60z" />
    <glyph glyph-name="uniE221" unicode="club&#x2d;card" 
d="M1013 579h-47q-14 0 -18 -12t5 -20q39 -38 55 -50q16 -11 12 -21t-32 -12t-98 -2t-98 2t-32 12t10 21q17 12 57 50q9 8 5 20t-18 12h-47q-51 1 -87 35t-37 80t23 78t59 42q34 10 39 46t42 66t84 30t84 -31t42 -66t40 -46q34 -11 58 -43t24 -68t-18 -64q-37 -60 -107 -59z
M494 101h812q16 0 28 12t12 28v1153q0 16 -12 28t-28 12h-812q-16 0 -28 -12t-12 -28v-1153q0 -16 12 -28t28 -12zM327 60v1315q0 35 25 61t61 26h974q36 0 61 -26t25 -61v-1315q0 -34 -25 -60t-61 -26h-974q-36 0 -61 26t-25 60z" />
    <glyph glyph-name="uniE222" unicode="book" 
d="M1061 397v32q0 25 23 34l230 93q16 4 28 -4t12 -23v-32q0 -25 -23 -34l-231 -92q-14 -5 -26 3t-13 23zM446 499v32q0 15 12 24t28 3l230 -93q23 -9 23 -34v-31q-1 -16 -13 -24t-26 -3l-231 92q-23 9 -23 34zM1061 703v32q0 25 23 34l230 93q16 4 28 -4t12 -23v-32
q0 -25 -23 -34l-231 -92q-24 -9 -36 13q-4 6 -3 13zM446 805v32q0 25 25 29q7 1 15 -2l230 -92q23 -10 23 -34v-32q-1 -16 -13 -24t-26 -3l-231 92q-23 9 -23 34zM1452 332v764q0 16 -14 25t-28 3l-412 -167q-33 -13 -33 -49v-773q0 -16 13 -25t28 -3l404 163q42 18 42 62z
M835 135v773q0 36 -33 49l-412 167q-15 6 -28 -3t-13 -25v-764q0 -45 41 -62l404 -163q15 -6 28 3t13 25zM1559 1210v-942q0 -47 -42 -62l-586 -237q-31 -12 -62 0l-586 237q-42 15 -42 62v942q-1 25 15 45q31 40 86 23l527 -213q31 -13 62 0l527 213q36 15 68 -7t33 -61z
" />
    <glyph glyph-name="uniE223" unicode="clipboard" 
d="M900 1261q20 -1 34 13t13 33q1 19 -13 33t-34 13q-20 1 -32 -13q-14 -14 -14 -33t14 -33q12 -14 32 -13zM1160 1367h252q38 0 65 -27t27 -65v-1219q0 -38 -27 -65t-65 -27h-1022q-39 0 -66 27t-27 65v1219q0 38 27 65t66 27h252v-69q0 -24 -18 -42t-42 -18h-116
q-16 0 -28 -12t-12 -28v-1065q0 -17 12 -29t28 -11h869q17 -1 29 11t11 29v1065q1 16 -11 28t-29 12h-115q-24 0 -42 18t-18 42v69zM1244 1024v-2q0 -26 -16 -36q-16 -9 -29 -9h-596q-26 0 -35 16q-10 16 -10 29v2q0 50 30 90t63 48q95 25 95 106v41q0 65 44 109t108 44h4
q88 0 132 -76q20 -35 20 -77v-41q0 -80 93 -104q35 -10 66 -50t31 -90z" />
    <glyph glyph-name="uniE224" unicode="check&#x2d;clipboard" 
d="M840 345q-22 0 -37 15l-154 154q-22 22 -22 52q-1 30 21 52t52 21q30 0 52 -21l88 -88l242 241q22 22 52 22q30 1 52 -21t21 -52q0 -30 -22 -53l-307 -307q-16 -15 -38 -15zM900 1261q18 -1 32 13t14 33t-14 33t-32 13q-18 1 -32 -13t-14 -33t14 -33t32 -13zM1159 1367
h252q54 0 80 -46q12 -21 12 -46v-1219q0 -38 -27 -65t-65 -27h-1022q-38 0 -65 27t-27 65v1219q0 38 27 65t65 27h252v-69q0 -38 -37 -55q-11 -5 -23 -5h-115q-16 0 -28 -12t-12 -28v-1065q0 -17 12 -29t28 -11h868q16 -1 28 11t12 29v1065q0 25 -14 32q-14 8 -26 8h-115
q-25 0 -43 18t-17 42v69zM1243 1024v-2q-1 -26 -17 -36q-16 -9 -28 -9h-596q-26 0 -35 16q-10 16 -10 29v2q1 68 53 113q24 21 58 30t55 37q22 28 22 64v41q0 65 45 109t108 44h3q63 0 108 -44t45 -109v-41q0 -81 92 -104q36 -10 66 -50t31 -90z" />
    <glyph glyph-name="uniE225" unicode="delete&#x2d;clipboard" 
d="M1133 364q1 -24 -17 -42t-42 -17q-24 0 -43 17l-126 127q-5 5 -10 0l-126 -127q-19 -17 -43 -17q-24 -1 -42 17t-17 42q0 24 18 42l126 127q5 5 0 9l-126 127q-18 17 -18 42q-1 25 17 43t42 17q24 0 43 -18l126 -126q5 -5 10 0l126 126q19 18 43 18q24 1 42 -17t17 -43
q0 -25 -18 -42l-126 -127q-5 -4 0 -9l126 -127q18 -18 18 -42zM900 1261q18 -1 32 13t14 33t-14 33t-32 13q-18 1 -32 -13t-14 -33t14 -33t32 -13zM1159 1367h252q54 0 80 -46q12 -21 12 -46v-1219q0 -38 -27 -65t-65 -27h-1022q-38 0 -65 27t-27 65v1219q0 38 27 65t65 27
h252v-69q0 -38 -37 -55q-11 -5 -23 -5h-115q-16 0 -28 -12t-12 -28v-1065q0 -17 12 -29t28 -11h868q16 -1 28 11t12 29v1065q0 25 -14 32q-14 8 -26 8h-115q-25 0 -43 18t-17 42v69zM1243 1024v-2q-1 -26 -17 -36q-16 -9 -28 -9h-596q-26 0 -35 16q-10 16 -10 29v2
q1 68 53 113q24 21 58 30t55 37q22 28 22 64v41q0 65 45 109t108 44h3q63 0 108 -44t45 -109v-41q0 -81 92 -104q36 -10 66 -50t31 -90z" />
    <glyph glyph-name="uniE226" unicode="text&#x2d;clipboard" 
d="M998 314q0 -18 -12 -37t-42 -19h-293q-21 0 -37 16t-16 37t16 37t37 16h293q22 0 38 -16t16 -34zM1202 536q0 -22 -16 -38t-38 -15h-497q-21 -1 -37 15t-16 38t16 38t37 15h497q22 1 38 -15t16 -38zM1202 764q0 -22 -16 -38t-38 -16h-497q-21 0 -37 16t-16 38t16 38
t37 15h497q22 1 38 -15t16 -38zM900 1261q18 -1 32 13t14 33t-14 33t-32 13q-18 1 -32 -13t-14 -33t14 -33t32 -13zM1159 1367h252q54 0 80 -46q12 -21 12 -46v-1219q0 -38 -27 -65t-65 -27h-1022q-38 0 -65 27t-27 65v1219q0 38 27 65t65 27h252v-69q0 -38 -37 -55
q-11 -5 -23 -5h-115q-16 0 -28 -12t-12 -28v-1065q0 -17 12 -29t28 -11h868q16 -1 28 11t12 29v1065q0 25 -14 32q-14 8 -26 8h-115q-25 0 -43 18t-17 42v69zM1243 1024v-2q-1 -26 -17 -36q-16 -9 -28 -9h-596q-26 0 -35 16q-10 16 -10 29v2q1 68 53 113q24 21 58 30t55 37
q22 28 22 64v41q0 65 45 109t108 44h3q63 0 108 -44t45 -109v-41q0 -81 92 -104q36 -10 66 -50t31 -90z" />
    <glyph glyph-name="uniE227" unicode="address&#x2d;book" 
d="M498 311q0 -25 -18 -43t-43 -18h-147q-25 0 -43 18t-18 43t18 43t43 18h147q25 0 43 -18t18 -43zM1032 653q16 0 29 12q12 12 12 29t-12 29q-13 12 -29 12t-28 -12t-12 -29t12 -29t28 -12zM498 695q0 -25 -18 -43t-43 -18h-147q-25 0 -43 18t-18 43t18 43t43 18h147
q25 0 43 -18t18 -43zM1167 398h-128q-124 0 -211 87t-87 209q-1 122 85 209t208 89t210 -82t92 -206q2 -77 -60 -118t-129 -7q-27 14 -54 0t-70 -14t-81 37t-38 89q0 53 34 91q35 38 79 40q43 2 75 -14q67 -36 70 -114q0 -18 14 -30t33 -11t29 15t9 30q-1 86 -62 146
t-147 60t-148 -63t-60 -150t64 -146t149 -59h122q41 0 46 -42q2 -16 -11 -30q-13 -16 -33 -16zM498 1079q0 -25 -18 -43t-43 -18h-147q-36 0 -49 22q-12 22 -12 44q0 20 18 38t43 18h147q25 0 43 -18t18 -43zM1442 172v1039q0 18 -13 31t-30 13h-718q-19 0 -31 -13t-12 -31
v-1039q0 -25 16 -35q16 -9 27 -9h718q17 0 30 13t13 31zM417 1383h1054q42 1 71 -29t29 -71v-1183q0 -40 -29 -70t-71 -30h-1054q-41 0 -71 30t-29 70v65q0 14 10 24t24 10h85q52 -1 86 39t26 86t-41 73q-34 26 -77 26h-79q-14 0 -24 10t-10 24v93q0 13 10 23t24 10h85
q72 1 103 67q14 30 8 68t-40 63q-34 26 -77 26h-79q-14 0 -24 10t-10 24v93q0 13 10 23t24 10h85q52 -1 86 39t28 80t-24 60q-36 44 -96 45h-79q-14 0 -24 10t-10 24v58q-1 41 29 71t71 29z" />
    <glyph glyph-name="uniE228" unicode="calendar" 
d="M1228 303q-33 0 -44 21q-12 21 -12 36v85q0 25 16 41t40 16h85q33 0 45 -20t12 -37v-85q0 -24 -16 -40t-41 -17h-85zM980 303q-24 1 -40 17t-16 40v85q0 25 16 41t40 16h86q32 0 44 -20t12 -37v-85q0 -24 -16 -40t-40 -17h-86zM732 303q-24 1 -40 17t-16 40v85
q0 25 16 41t40 16h86q24 0 40 -16t16 -41v-85q0 -24 -16 -40t-40 -17h-86zM484 303q-24 1 -40 17t-16 40v85q0 25 16 41t40 16h86q24 0 40 -16t16 -41v-85q0 -24 -16 -40t-40 -17h-86zM1228 551q-24 1 -40 17t-16 40v85q0 25 16 41t40 16h85q25 0 41 -16t16 -41v-85
q0 -24 -16 -40t-41 -17h-85zM980 551q-38 1 -52 35q-4 10 -4 22v85q0 25 16 41t40 16h86q24 0 40 -16t16 -41v-85q0 -24 -16 -40t-40 -17h-86zM732 551q-38 1 -52 35q-4 10 -4 22v85q0 25 16 41t40 16h86q24 0 40 -16t16 -41v-85q0 -24 -16 -40t-40 -17h-86zM376 128h1046
q16 0 28 12t12 28v705q0 17 -12 29t-28 12h-1046q-16 0 -28 -12t-12 -29v-705q0 -16 12 -28t28 -12zM1393 1120v94q0 16 12 28t28 12h62q40 0 68 -28t28 -69v-1061q0 -40 -28 -68t-68 -28h-1190q-55 0 -83 48q-12 22 -13 48v1061q0 41 28 69t68 28h69q16 0 28 -12t12 -28
v-101q0 -63 48 -103t103 -32q56 10 88 50t32 92v94q-1 16 11 28t29 12h357q16 0 28 -12t12 -28v-101q0 -63 48 -103t104 -32q56 10 88 50t31 92zM1258 1038q-30 0 -52 22q-21 22 -21 51v175q0 30 21 52q22 22 52 21q30 1 51 -21t21 -52v-175q0 -29 -21 -51t-51 -22z
M549 1038q-30 0 -51 22t-21 51v175q0 30 21 52t51 21q29 1 51 -21t22 -52v-175q0 -29 -22 -51t-51 -22z" />
    <glyph glyph-name="uniE231" unicode="calendar&#x2d;day" 
d="M968 532q0 -176 120 -177q40 1 72 45t32 119t-32 119t-80 43q-48 1 -80 -43t-32 -106zM635 320v314q0 9 -9 15t-27 2q-51 -13 -63 28q-6 24 4 41t29 23l103 30h39q19 -1 27 -13t8 -22v-420q0 -24 -18 -41t-40 -15q-23 2 -38 18q-15 17 -15 40zM1080 783q94 0 161 -74
t67 -203t-93 -206q-57 -47 -135 -47h-1q-97 0 -162 73t-65 191t67 192t161 74zM379 127h1046q17 0 29 12t11 28v706q1 17 -11 29t-29 11h-1046q-17 1 -29 -11t-11 -29v-706q-1 -16 11 -28t29 -12zM1396 1119v94q0 17 12 29t28 11h62q40 0 68 -28t28 -68v-1061q0 -40 -28 -68
t-68 -28h-1190q-40 0 -68 28t-28 68v1061q0 40 28 68t68 28h69q16 1 28 -11t12 -29v-101q-1 -76 65 -116q42 -26 84 -19t68 27q54 43 54 115v94q0 17 12 29t28 11h357q16 1 28 -11t12 -29v-101q-1 -62 47 -103t96 -33t74 28q54 42 54 115zM1260 1038q-30 0 -51 22t-21 51
v174q0 29 21 51t46 22t42 -10q36 -20 36 -63v-174q0 -29 -21 -51q-22 -22 -52 -22zM552 1038q-30 0 -51 22t-21 51v174q0 29 21 51t43 22q39 0 60 -22t21 -51v-174q1 -29 -21 -51t-52 -22z" />
    <glyph glyph-name="uniE232" unicode="id&#x2d;card" 
d="M1431 305v14q0 22 -16 38t-38 16h-342q-21 0 -37 -16t-16 -38v-14q0 -21 16 -37t37 -16h342q22 0 38 16t16 37zM1431 560v14q0 22 -16 38t-38 16h-342q-21 0 -37 -16t-16 -38v-14q0 -22 16 -38t37 -15h342q22 -1 38 15t16 38zM1431 816v14q0 22 -16 38t-38 16h-342
q-21 0 -37 -16t-16 -38v-14q0 -22 16 -38t37 -15h342q22 -1 38 15t16 38zM741 233q32 1 58 17t26 48q1 32 -15 50t-38 28l-44 20q-53 25 -53 66q0 40 33 86q63 88 63 162t-24 118q-48 87 -154 87q-77 -1 -127 -51t-51 -139q1 -89 49 -157q48 -67 48 -92t-8 -40
q-8 -14 -22 -24t-30 -18l-32 -16t-38 -22q-22 -15 -21 -52q0 -38 26 -54t58 -17h296zM253 1128h1294q41 0 69 -28t28 -68v-920q0 -40 -28 -68t-69 -28h-1294q-41 0 -69 28t-28 68v920q0 40 28 68t69 28z" />
    <glyph glyph-name="uniE233" unicode="polaroids" 
d="M1135 311l-240 12q-69 3 -65 61q2 39 51 58q49 18 62 34q14 15 15 34q1 28 -35 85q-37 56 -33 129q2 72 46 110t106 36q62 -3 102 -46q40 -44 36 -98q-5 -89 -47 -143t-43 -76q-1 -23 11 -39q11 -16 29 -24l36 -18q42 -22 40 -57q-3 -61 -71 -58zM634 234l750 -35
q15 -1 26 9t12 25l31 675q1 15 -9 26t-25 11l-750 36q-15 0 -26 -10t-12 -25l-31 -674q-1 -14 9 -26t25 -12zM335 1181l36 -675q4 -37 38 -34l53 3q14 0 24 10t11 24l23 504q2 37 28 61t63 22l514 -24q15 -2 27 10t11 28l-6 114q-1 15 -12 25t-26 9l-749 -39q-15 -1 -25 -12
t-10 -26zM1280 1293l10 -195q1 -14 11 -24t25 -11l173 -9q36 -2 60 -28t23 -62l-47 -988q-1 -36 -27 -60t-63 -23l-888 42q-35 1 -59 27t-21 60l5 109q0 25 -14 32q-14 8 -26 8l-80 -4q-36 -2 -63 22t-28 60l-53 988q-2 35 22 62t60 29l888 47q36 2 63 -22t29 -60z" />
    <glyph glyph-name="uniE234" unicode="polaroids&#x2d;blank" 
d="M634 234l750 -35q15 -1 26 9t12 25l31 675q1 15 -9 26t-25 11l-750 36q-15 0 -26 -10t-12 -25l-31 -674q-1 -14 9 -26t25 -12zM335 1181l36 -675q4 -37 38 -34l53 3q14 0 24 10t11 24l23 504q2 37 28 61t63 22l514 -24q15 -2 27 10t11 28l-6 114q-1 15 -12 25t-26 9
l-749 -39q-15 -1 -25 -12t-10 -26zM1280 1293l10 -195q1 -14 11 -24t25 -11l173 -9q36 -2 60 -28t23 -62l-47 -988q-1 -36 -27 -60t-63 -23l-888 42q-35 1 -59 27t-21 60l5 109q0 25 -14 32q-14 8 -26 8l-80 -4q-36 -2 -63 22t-28 60l-53 988q-2 35 22 62t60 29l888 47
q36 2 63 -22t29 -60z" />
    <glyph glyph-name="uniE235" unicode="photos" 
d="M1123 545l190 -294q11 -15 1 -30t-28 -13l-804 98q-21 2 -28 22t9 36l330 316q17 17 41 14t37 -23l94 -145q11 -18 31 -20t36 12l34 33q13 12 30 10t27 -16zM1391 710q0 -36 -26 -62q-27 -26 -63 -26t-62 26t-25 62q-1 36 25 62t62 25q36 1 63 -25q26 -26 26 -62z
M360 176l1032 -122q18 -2 32 9t16 29l91 762q2 18 -9 32t-29 16l-1032 122q-18 4 -32 -8t-17 -30l-90 -762q-2 -18 9 -32t29 -16zM216 1014l28 -122q4 -18 22 -17t20 19l18 147q0 11 -8 19t-19 5l-33 -7q-15 -3 -23 -16t-5 -28zM698 1125l635 -79q11 -1 19 7t5 20l-41 182
q-4 17 -19 27t-33 6l-568 -128q-14 -4 -14 -18t16 -17zM1414 1361l66 -299q5 -35 44 -40l62 -7q34 -5 56 -32t16 -61l-114 -922q-4 -34 -32 -56t-61 -16l-1183 146q-34 5 -56 32t-16 61l32 260l-141 643q-13 53 33 86q14 10 30 13l1165 256q34 7 63 -11t36 -53z" />
    <glyph glyph-name="uniE236" unicode="photo" 
d="M780 747q26 0 43 -20l121 -146q16 -17 38 -17t36 17l33 41q12 14 31 14t32 -14l245 -295q12 -15 4 -33t-27 -17l-888 1q-24 0 -34 22t5 39l318 387q17 21 43 21zM1364 882q16 -20 20 -52t-20 -64t-64 -37t-72 20t-36 65t20 70q24 31 58 35q32 4 56 -6q22 -11 38 -31z
M327 127h1147q18 1 30 13t13 30v849q-1 19 -13 31t-30 12h-1147q-19 0 -31 -12t-12 -31v-849q0 -18 12 -30t31 -13zM156 100v998q0 42 29 71t71 29h1288q58 0 86 -49q14 -23 14 -51v-998q0 -56 -50 -86q-23 -14 -50 -14h-1288q-42 0 -71 30t-29 70z" />
    <glyph glyph-name="uniE237" unicode="camera" 
d="M1227 506q-1 -68 -27 -115t-72 -73t-114 -26t-127 58q-58 58 -58 142q0 82 58 140t141 59q83 -1 141 -59t58 -126zM1028 176q131 0 223 92t92 223q0 87 -42 159q-43 72 -115 114t-158 43q-131 -1 -223 -93t-92 -222t92 -224q92 -92 223 -92zM1459 733q30 0 51 21t21 51
t-21 51t-51 21q-29 0 -51 -21t-22 -51t22 -51t51 -21zM772 982h718q86 0 130 -74q20 -34 20 -76v-662q0 -62 -44 -106t-106 -44h-1180q-62 0 -106 44t-44 106v662q0 62 44 106t106 44h36q48 0 66 57t67 57h158q49 0 70 -64q19 -50 65 -50z" />
    <glyph glyph-name="uniE238" unicode="headphones" 
d="M888 1334q-132 0 -244 -50q-111 -50 -186 -137q-158 -183 -158 -456q0 -14 10 -31t28 -17q18 -1 44 17q76 52 121 53t60 -19q17 -20 25 -38t14 -46q18 -85 18 -262q0 -178 -8 -250t-23 -112q-17 -38 -37 -52t-42 -15t-40 3t-52 20t-66 43q-78 67 -133 220t-55 421
q0 351 176 576q99 126 245 193t304 67q240 0 441 -150t262 -454q22 -108 22 -224t-10 -209t-28 -159q-17 -66 -41 -122q-24 -54 -49 -90t-53 -62q-78 -74 -157 -73q-47 -1 -69 31q-21 32 -35 95t-14 177v154t2 82t4 71t7 57t11 48q28 80 84 79q52 0 102 -35t70 -35t30 17
t10 31q0 275 -160 457q-76 86 -186 136q-112 50 -244 50z" />
    <glyph glyph-name="uniE241" unicode="stop" 
d="M569 157q-34 -1 -57 23t-23 57v670q0 33 23 57t57 23h662q34 1 57 -23t23 -57v-670q0 -33 -23 -57t-57 -23h-662z" />
    <glyph glyph-name="uniE242" unicode="play" 
d="M1312 572q0 -38 -33 -58l-650 -379q-21 -13 -43 -1t-21 38v800q-1 26 21 38t43 -1l650 -379q33 -20 33 -58z" />
    <glyph glyph-name="uniE243" unicode="record" 
d="M1363 572q-1 -94 -37 -180t-98 -148t-148 -98t-170 -37t-156 23q-138 46 -228 166q-89 120 -89 274q1 94 37 180t98 148t148 98t180 37q94 -1 180 -37t148 -98t98 -148t37 -180z" />
    <glyph glyph-name="uniE244" unicode="pause" 
d="M1057 123q-35 -1 -61 25t-26 62v724q0 36 26 62t61 25h120q36 1 61 -25t25 -62v-724q0 -36 -25 -62t-61 -25h-120zM623 123q-36 -1 -61 25t-25 62v724q0 36 25 62t61 25h120q36 1 61 -25t25 -62v-724q0 -36 -25 -62t-61 -25h-120z" />
    <glyph glyph-name="uniE245" unicode="ffw" 
d="M1425 572q0 -34 -26 -56l-468 -381q-21 -13 -43 -1t-22 38v220q0 26 -24 38t-46 -5l-357 -290q-21 -13 -43 -1t-21 38v800q-1 26 21 38t43 -1l357 -290q22 -17 46 -5t24 38v220q0 26 22 38t43 -1l468 -381q26 -22 26 -56z" />
    <glyph glyph-name="uniE246" unicode="rev" 
d="M375 572q0 34 26 56l468 381q21 13 43 1t22 -38v-220q0 -26 24 -38t46 5l357 290q21 13 43 1t21 -38v-800q1 -26 -21 -38t-43 1l-357 290q-22 17 -46 5t-24 -38v-220q0 -26 -22 -38t-43 1l-468 381q-26 22 -26 56z" />
    <glyph glyph-name="uniE247" unicode="skip&#x2d;forward" 
d="M978 572q0 -35 -27 -57l-469 -380q-21 -13 -43 -1t-22 38v800q0 26 22 38t43 -1l469 -380q27 -22 27 -57zM1173 1021h126q54 1 77 -51q7 -16 7 -33v-730q-1 -35 -25 -59t-59 -25h-126q-41 0 -62 28t-21 56v730q0 35 24 59t59 25z" />
    <glyph glyph-name="uniE248" unicode="skip&#x2d;back" 
d="M1383 972v-800q0 -26 -22 -38t-43 1l-469 380q-27 22 -27 57t27 57l469 380q21 13 43 1t22 -38zM501 1021h126q35 -1 59 -25t24 -59v-730q0 -35 -24 -59t-59 -25h-126q-47 0 -73 42q-12 19 -11 42v730q1 35 25 59t59 25z" />
    <glyph glyph-name="uniE251" unicode="eject" 
d="M535 373h730q35 -1 59 -25t25 -58v-126q-1 -36 -25 -60t-59 -24h-730q-35 0 -59 24t-25 60v126q1 34 25 58t59 25zM1343 548q0 -18 -12 -32q-12 -13 -31 -13h-800q-19 0 -31 13t-12 26t3 22l2 2l1 2l380 468q31 38 79 24q22 -6 35 -24l380 -468l1 -2q5 0 5 -18z" />
    <glyph glyph-name="uniE252" unicode="volume&#x2d;max" 
d="M907 951q0 23 17 41q18 18 42 18t41 -18q147 -151 147 -362t-147 -360q-17 -18 -41 -18t-42 17t-18 41t17 41q115 117 115 279t-115 280q-16 17 -16 41zM758 636q0 -60 -2 -124q-2 -66 -4 -116t-4 -106q-2 -54 -4 -84q0 -30 -12 -49q-12 -20 -36 -20t-58 25
q-250 191 -268 202t-48 27t-90 16t-92 30q-32 31 -38 89t-6 104t6 104q12 119 128 118q70 0 102 19q65 39 306 225q34 25 58 25q46 0 48 -73q0 -26 4 -106t7 -163t3 -143zM1304 630q0 269 -189 465q-17 17 -19 41t16 44q16 20 42 20t45 -19q106 -108 166 -250t60 -274
q0 -350 -227 -577q-17 -18 -42 -18t-43 17q-17 19 -17 43t16 42q122 122 168 292q24 84 24 174zM1583 630q1 190 -71 360t-200 302q-37 37 -8 79q16 23 44 25t47 -17q145 -147 227 -340t82 -408q0 -288 -144 -535q-68 -117 -165 -214q-19 -17 -43 -17t-42 17q-18 18 -18 43
t17 42q130 131 202 302t72 361z" />
    <glyph glyph-name="uniE253" unicode="volume" 
d="M1046 310q0 24 22 46q110 112 109 275q0 163 -114 279q-17 17 -17 41q0 23 18 41t41 18q24 0 42 -18q147 -153 147 -363q0 -209 -148 -359q-18 -18 -42 -18t-41 17t-17 41zM236 630q0 46 5 92q7 68 37 99t74 31q43 0 65 4q43 8 73 27q31 19 288 213q73 56 98 -6
q7 -18 8 -42l14 -419l-14 -418q-2 -74 -48 -74q-24 0 -58 25q-92 70 -178 134t-88 66t-19 12q-16 10 -25 14q-9 3 -31 11t-75 8q-52 0 -83 30q-31 31 -37 89t-6 104zM1443 652q1 112 -49 232t-140 211q-16 17 -18 41t14 44t44 20q26 0 44 -19q106 -108 166 -250t60 -300
q0 -159 -60 -301t-166 -250q-18 -18 -43 -18t-42 18t-17 42t16 42q191 194 191 488z" />
    <glyph glyph-name="uniE254" unicode="volume&#x2d;min" 
d="M1231 629q0 -67 -3 -149q-2 -82 -6 -163q-4 -80 -5 -110t-13 -50t-35 -20q-24 0 -58 25q-93 70 -179 134t-91 69q-52 42 -136 42q-64 0 -100 37q-36 38 -36 186q0 46 6 104q12 119 128 118q74 0 103 18t43 30q13 10 93 69t169 127q34 25 58 25q46 0 48 -73q1 -26 5 -106
t6 -163q3 -83 3 -150z" />
    <glyph glyph-name="uniE255" unicode="mute" 
d="M1082 130q-24 0 -56 24t-66 52q-34 26 -71 54t-53 42q-16 12 -16 34t17 34l233 189q24 18 50 5t25 -43q-3 -67 -9 -179t-7 -143t-12 -50t-35 -19zM1271 956q24 -4 38 -22q15 -18 13 -44t-19 -38l-733 -558q-18 -13 -42 -10q-24 2 -36 20q-14 18 -14 44t18 38l733 562
q18 13 42 8zM482 582v39q0 151 36 187t80 35q76 0 110 17t159 109q125 93 167 124t70 15t28 -66t-37 -78l-545 -415q-20 -17 -44 -5t-24 38z" />
    <glyph glyph-name="uniE256" unicode="volume&#x2d;plus" 
d="M1372 687h120q12 -1 21 -9t9 -21v-43q0 -12 -9 -21t-21 -9h-120q-12 0 -20 -8t-9 -22v-119q0 -12 -9 -21t-21 -9h-44q-13 0 -21 9t-8 21v119q0 14 -9 22t-21 8h-120q-12 0 -21 9t-9 21v43q0 13 9 21t21 9h120q12 0 21 9t9 21v120q0 13 8 21t21 8h44q12 0 21 -8t9 -21
v-120q1 -12 9 -21t20 -9zM940 629q0 -67 -3 -149t-7 -163q-4 -80 -4 -110t-12 -50t-36 -20t-58 25q-244 187 -265 200q-20 13 -51 29t-91 16t-91 30q-32 31 -38 89t-6 104t5 92q7 68 37 99t74 31t66 4q43 8 83 32q40 25 277 208q76 54 98 -6q6 -18 8 -42q0 -26 4 -106
t7 -163t3 -150z" />
    <glyph glyph-name="uniE257" unicode="volume&#x2d;minus" 
d="M1091 579q-13 0 -22 9t-9 21v43q0 14 9 22t22 8h401q12 0 21 -8t9 -22v-43q0 -12 -9 -21t-21 -9h-401zM940 624q0 -67 -3 -150q-3 -82 -7 -162t-4 -110t-12 -50t-36 -20t-58 25q-281 216 -310 226q-9 3 -31 11t-57 8q-36 0 -56 6q-38 11 -63 45t-25 178t38 179
q38 36 79 36q43 0 65 4q44 9 83 34q39 24 277 207q76 55 98 -5q6 -18 8 -44q0 -26 4 -105q4 -80 7 -163t3 -150z" />
    <glyph glyph-name="uniE258" unicode="volume&#x2d;delete" 
d="M1500 509q0 -12 -9 -21l-30 -31q-9 -8 -21 -8t-22 8l-84 85q-10 8 -22 8t-20 -8l-85 -85q-9 -8 -21 -8t-21 8l-31 31q-8 9 -8 21t8 21l85 85q9 9 9 21t-9 21l-85 84q-8 9 -8 21t8 21l31 31q9 9 21 9t21 -9l85 -84q8 -9 20 -9t22 9l84 84q10 9 22 9t21 -9l30 -31
q9 -9 9 -21t-9 -21l-84 -84q-9 -9 -9 -21t9 -21l84 -85q9 -9 9 -21zM962 629q0 -67 -3 -149t-7 -163q-4 -80 -4 -110t-12 -50t-36 -20t-58 25q-244 186 -265 200q-21 13 -51 29t-90 16t-92 30q-32 31 -38 89t-6 104t5 92q7 68 37 99t74 31q43 0 65 4q43 8 77 29
q35 21 284 211q34 25 58 25q46 0 48 -73q0 -26 4 -106t7 -163t3 -150z" />
    <glyph glyph-name="uniE261" unicode="music&#x2d;notes" 
d="M1063 262v67q-1 66 43 117t110 61l160 24q34 5 34 39v400q0 48 -46 70q-20 10 -43 6l-492 -81q-40 -6 -66 -37t-26 -71v-683q-1 -64 -43 -114t-107 -60l-172 -26q-57 -9 -101 29t-45 96v67q-1 68 43 118t111 60l159 24q14 2 24 14t10 25v827q0 40 26 71t66 37l733 120
q35 6 63 -17t27 -58v-1050q0 -65 -43 -115t-107 -59l-172 -26q-58 -9 -102 29t-44 96z" />
    <glyph glyph-name="uniE262" unicode="music&#x2d;notes&#x2d;box" 
d="M1239 439v698q0 23 -18 39t-41 12l-488 -80q-26 -4 -44 -24t-17 -48v-550q0 -24 -22 -26l-107 -16q-44 -6 -73 -40t-29 -79v-44q0 -39 30 -64t67 -19l115 17q60 9 86 62q12 25 13 54v454q-1 27 17 47t45 25l327 54q32 4 46 -15q13 -20 13 -35v-267q0 -21 -22 -26
l-107 -16q-58 -8 -88 -64q-14 -26 -14 -54v-45q0 -37 30 -63t67 -20l115 17q43 7 71 40t28 76zM246 1462h1308q38 0 64 -26t26 -64v-1308q0 -38 -26 -64t-64 -26h-1308q-38 0 -64 26t-26 64v1308q0 38 26 64t64 26z" />
    <glyph glyph-name="uniE263" unicode="speaker" 
d="M979 380q0 -32 -23 -56q-24 -23 -56 -23t-54 23q-22 24 -23 56q1 32 23 55t54 23t56 -23q23 -23 23 -55zM900 88q120 0 206 86t86 206t-86 205t-206 85t-205 -85t-85 -205t85 -206t205 -86zM968 947q0 -28 -20 -48t-43 -20t-39 9q-34 19 -34 53t20 54t48 20t48 -20
t20 -48zM900 1101q-64 0 -109 -45t-45 -115q0 -71 63 -119q39 -30 97 -29q58 0 103 45t45 109t-45 109t-109 45zM1443 1163v-1107q1 -49 -41 -72q-20 -11 -42 -11h-920q-34 1 -58 25t-25 58v1107q0 16 8 29l132 227q24 43 75 43h656q51 0 75 -43l132 -227q8 -13 8 -29z" />
    <glyph glyph-name="uniE264" unicode="boombox" 
d="M1405 503q0 -31 -22 -53q-21 -22 -53 -22t-54 22t-22 53t22 53t54 22t53 -22q22 -22 22 -53zM546 503q0 -31 -22 -53t-54 -22t-53 22q-22 22 -22 53t22 53q21 22 53 22t54 -22t22 -53zM826 636h147q25 0 41 16t16 40t-16 40t-41 16h-147q-24 0 -40 -16t-16 -40t16 -40
t40 -16zM1330 243q108 0 184 76t76 184q0 109 -76 185t-184 76t-184 -76t-77 -185q0 -71 35 -131t95 -94t131 -35zM470 243q108 0 184 76t77 184q-1 109 -77 185t-184 76t-184 -76t-76 -185q0 -108 76 -184t184 -76zM1727 505q-1 -105 -53 -197t-143 -148q-91 -54 -197 -54
h-868q-172 0 -283 121q-110 121 -110 274q0 152 106 273q50 58 129 92t173 34q19 0 23 16q7 32 33 32h53q16 0 24 -10t9 -19q2 -19 23 -19t23 16q5 32 33 32h53q11 0 21 -8t11 -18q1 -8 5 -12q14 -19 36 -2q6 4 6 14t11 18q10 8 20 8h8q27 0 32 -28q5 -20 23 -20h217
q17 0 23 16t-5 27l-362 373q-11 13 -5 29t20 16t23 -8l431 -422q30 -29 74 -31q103 -4 191 -58t140 -142q52 -90 52 -195z" />
    <glyph glyph-name="uniE265" unicode="ipod" 
d="M1008 360q0 -32 -32 -64t-76 -31q-44 -1 -76 31t-32 77t32 77t62 31q32 1 48 -5t30 -16q13 -10 23 -23q9 -13 15 -29t6 -48zM900 111q110 0 186 77q76 78 76 186t-76 184t-186 77q-110 -1 -186 -77t-76 -184t76 -186q76 -77 186 -77zM666 770h468q33 0 46 30q4 10 4 20
v408q0 30 -18 40t-32 10h-468q-22 0 -36 -14t-14 -36v-408q0 -22 14 -36t36 -14zM506 100v1190q0 42 30 71t70 29h588q40 0 70 -29t30 -71v-1190q0 -40 -30 -70t-70 -30h-588q-40 0 -70 30t-30 70z" />
    <glyph glyph-name="uniE266" unicode="microphone" 
d="M1317 885q26 -1 45 -19t19 -44v-111q1 -168 -105 -298t-267 -166q-44 -10 -44 -58v-53q1 -32 19 -45t58 -19t71 -10q31 -6 47 -26t16 -42t-17 -42q-17 -22 -49 -22h-420q-32 0 -49 22t-17 42q0 22 16 42t47 26q32 6 97 14q22 4 36 20t15 40v55q0 21 -12 37t-32 21
q-161 37 -267 167t-105 295v111q1 26 19 44t44 19q26 -1 45 -19t19 -44v-111q0 -131 90 -228q142 -154 351 -112q119 28 193 128t74 224v99q0 26 18 44t45 19zM902 455q-106 0 -184 75q-77 75 -77 181v495q0 106 75 181t181 75q105 0 183 -75t78 -181v-495q0 -106 -75 -181
t-181 -75z" />
    <glyph glyph-name="uniE267" unicode="microphone&#x2d;alt" 
d="M412 -18q-42 8 -78 38t-50 69q-14 38 7 72l492 693q20 26 39 22q19 -6 24 -10q8 -6 38 -40q70 -78 170 -138q65 -38 23 -79l-594 -609q-29 -26 -71 -18zM1263 1271q42 -18 83 -52q42 -34 68 -81q45 -80 39 -170t-36 -130q-8 -12 -5 -36t-4 -36q-8 -12 -30 -10t-42 -14
q-81 -62 -132 -62q-86 1 -221 113q-48 39 -94 93t-52 85q-14 73 39 169q5 14 1 34q-5 20 5 30t34 12q24 0 36 12t34 24t54 24q30 11 67 15t75 1t81 -21z" />
    <glyph glyph-name="uniE268" unicode="cd" 
d="M894 528q62 0 106 44t44 90q0 77 -43 122q-43 44 -106 44t-107 -44t-44 -106t44 -106t106 -44zM882 1018q152 0 252 -100t100 -240q0 -92 -46 -170t-124 -124t-170 -46t-171 46q-77 46 -123 124t-46 170t46 171q46 77 123 123q78 46 159 46zM894 248q116 0 216 58
t156 156q58 100 58 216t-58 216q-58 98 -156 156q-100 58 -216 58t-216 -58q-98 -58 -156 -156q-58 -100 -58 -216t58 -216t156 -156q100 -58 216 -58zM920 1462q133 0 278 -62t250 -167t167 -250t62 -305t-62 -304q-62 -145 -167 -250t-250 -167q-144 -62 -304 -62t-305 62
t-250 167t-167 250t-62 278q0 132 28 234t78 188t124 158q72 72 158 124q86 50 188 78t234 28z" />
    <glyph glyph-name="uniE271" unicode="vinyl" 
d="M899 284q16 0 29 12t13 26q0 43 -42 43q-137 0 -233 96t-96 233q0 16 -13 28t-29 12t-28 -12t-12 -28q0 -112 55 -206t149 -149t207 -55zM941 116q-1 16 -13 28t-29 13q-109 1 -209 43t-172 114t-114 172t-43 208q-1 16 -13 28t-28 12t-28 -12t-12 -28q0 -309 253 -499
q160 -120 366 -120q16 1 29 13t13 28zM900 527q70 1 118 49t48 105t-22 95q-47 82 -144 83q-70 -1 -118 -49t-48 -117t48 -117t118 -49zM1271 653q15 0 27 12t12 28q0 111 -55 205t-149 150q-94 55 -206 55q-17 0 -30 -12q-13 -13 -13 -29t13 -28t30 -12q89 0 165 -44
t120 -120t44 -165q0 -16 13 -28t29 -12zM1482 653q14 0 24 12q12 12 13 28q0 127 -49 241t-132 197q-84 83 -198 132t-240 49q-17 -1 -30 -13t-13 -28q0 -17 13 -29t30 -12q270 0 434 -219q104 -138 103 -318q-1 -22 15 -31t30 -9zM900 1462q156 0 298 -61t246 -164
q103 -103 164 -245t61 -299t-61 -299t-164 -245q-104 -103 -246 -164t-298 -61t-298 61t-246 164q-103 103 -164 245t-61 299t61 299t164 245q104 103 246 164t298 61z" />
    <glyph glyph-name="uniE272" unicode="cassette" 
d="M1217 567q34 0 63 29t29 70t-29 70t-70 29t-70 -29t-29 -63q-1 -35 13 -57t36 -36t57 -13zM589 567q41 0 70 29t29 70t-29 70t-70 29t-70 -29t-29 -70t29 -70t70 -29zM413 877h974q18 0 31 -13t13 -31v-334q0 -18 -13 -31t-31 -13h-974q-25 0 -34 16q-10 16 -10 28v334
q0 18 13 31t31 13zM1407 157h65q18 1 30 13t13 30v719q-1 19 -13 31t-30 12h-1144q-18 0 -30 -12t-13 -31v-719q1 -18 13 -30t30 -13h66q43 0 58 39l57 134q17 39 59 39h664q42 0 59 -39l58 -135q14 -38 58 -38zM156 122v875q0 37 28 65t66 28h1300q38 0 66 -28t28 -65v-875
q0 -38 -28 -66t-66 -27h-1300q-38 -1 -66 27t-28 66z" />
    <glyph glyph-name="uniE273" unicode="eq" 
d="M1550 315q-43 -7 -43 -44v-274q0 -30 -22 -50t-50 -17q-27 3 -45 23t-18 47v271q0 36 -36 43q-61 9 -61 69t57 67q40 5 40 44v765q0 29 22 49t50 17t46 -23t17 -47v-761q0 -38 43 -44q54 -9 54 -67q0 -59 -54 -68zM1249 866q0 -52 -61 -61q-16 -3 -26 -15t-10 -28v-765
q0 -30 -22 -50t-50 -17t-45 23t-17 47v762q0 25 -14 34q-14 8 -34 11q-50 8 -50 67q0 57 54 67q44 8 44 44v274q0 29 22 49t50 17t44 -23q18 -20 18 -47v-270q0 -36 37 -43q45 -7 55 -36q4 -14 5 -40zM880 383q0 -59 -49 -67q-49 -9 -49 -45v-274q0 -30 -22 -50t-49 -17
q-27 4 -45 24t-18 46v271q0 36 -37 43q-39 6 -49 26q-11 19 -11 49q0 52 61 62q16 3 26 15t10 28v765q0 29 22 49t50 18t45 -24q17 -20 17 -47v-761q0 -36 33 -42t49 -20t16 -49zM525 865q0 -50 -61 -60q-36 -7 -36 -43v-765q0 -30 -22 -50t-50 -17q-28 4 -46 24t-17 46v762
q0 36 -33 42q-32 6 -48 21t-16 50q0 56 54 66q42 8 43 44v274q0 29 22 49t50 18q27 -2 45 -24q18 -20 18 -46v-271q0 -36 36 -43t48 -23q13 -16 13 -54z" />
    <glyph glyph-name="uniE274" unicode="actionboard" 
d="M1329 275v37q0 19 -14 33t-33 14h-717q-19 0 -33 -14t-14 -33v-37q0 -19 14 -33t33 -14h717q27 0 37 17t10 30zM1329 533v37q0 20 -14 34t-33 13h-717q-19 1 -33 -13t-14 -34v-37q0 -19 14 -33t33 -14h717q19 0 33 14t14 33zM559 846h947q32 0 56 -23t24 -57v-686
q0 -32 -24 -56t-56 -24h-1163q-33 0 -57 24t-23 56v659q0 107 -29 211l-17 59q-9 33 7 63t50 40l1089 327q35 9 65 -7t39 -49l36 -123q9 -33 -7 -63t-49 -40l-894 -269q-18 -6 -15 -24t21 -18z" />
    <glyph glyph-name="uniE275" unicode="film" 
d="M448 140v30q0 20 -14 35t-36 15h-30q-20 0 -34 -15t-15 -35v-30q1 -22 15 -36t34 -14h30q22 0 36 14t14 36zM1483 140v30q0 28 -18 39t-31 11h-30q-22 0 -36 -15t-14 -35v-30q0 -33 30 -46q10 -4 20 -4h30q20 0 34 14t15 36zM448 418v29q0 21 -14 35t-36 15h-30
q-20 -1 -34 -15t-15 -35v-29q1 -22 15 -36t34 -14h30q22 0 36 14t14 36zM1483 418v29q-1 21 -15 35t-34 15h-30q-22 -1 -36 -15t-14 -35v-29q0 -22 14 -36t36 -14h30q20 0 34 14t15 36zM1263 138v441q1 27 -19 47t-48 20h-593q-43 0 -61 -40q-6 -12 -6 -27v-441
q0 -28 20 -48t47 -19h593q28 -1 48 19t19 48zM1483 695v30q-1 21 -15 35t-34 15h-30q-22 -1 -36 -15t-14 -35v-30q0 -20 14 -35t36 -15h30q28 1 39 19q10 18 10 31zM448 695v30q0 30 -18 40t-32 10h-30q-29 0 -39 -18t-10 -32v-30q1 -20 15 -35t34 -15h30q29 1 40 19
q10 18 10 31zM1483 973v30q0 28 -18 39t-31 11h-30q-22 0 -36 -15t-14 -35v-30q0 -33 30 -46q10 -4 20 -4h30q20 1 34 15t15 35zM448 973v30q0 20 -14 35t-36 15h-30q-20 0 -34 -15t-15 -35v-30q1 -21 15 -35t34 -15h30q22 1 36 15t14 35zM1483 1251v29q-1 22 -15 36t-34 14
h-30q-30 0 -40 -18t-10 -32v-29q0 -21 14 -35t36 -15h30q34 0 46 30q4 9 3 20zM448 1251v29q0 22 -14 36t-36 14h-30q-32 0 -45 -30q-4 -9 -4 -20v-29q1 -21 15 -35t34 -15h30q33 0 46 30q4 9 4 20zM1263 844v441q1 27 -19 47t-48 20h-593q-27 0 -47 -20t-20 -47v-441
q0 -28 20 -48t47 -19h593q28 -1 48 19t19 48zM285 1462h1230q23 0 39 -16t17 -41v-1394q-1 -33 -21 -45t-35 -12h-1230q-32 0 -44 20t-12 37v1394q1 25 17 41t39 16z" />
    <glyph glyph-name="uniE276" unicode="tv" 
d="M1358 314q36 0 61 14q52 30 52 83q-1 52 -31 83t-74 31t-75 -31q-31 -30 -31 -74t31 -75t67 -31zM1366 613q44 0 74 31t31 75q-1 45 -31 75t-66 30t-61 -14q-53 -31 -53 -83t31 -83t75 -31zM326 152q0 -24 23 -24h759q9 0 16 7t7 17v673q-1 13 -9 19q-8 5 -14 5h-759
q-23 0 -23 -24v-673zM871 975h637q39 1 66 -27t27 -66v-789q0 -37 -27 -65t-66 -28h-1216q-52 0 -80 46q-12 22 -13 47v789q0 38 27 66t66 27h295q15 1 21 13t-2 24l-257 376q-14 21 9 34q17 8 28 -7l311 -422q13 -16 33 -16t31 16l311 422q11 15 31 5t6 -32l-257 -376
q-8 -12 -2 -24t21 -13z" />
    <glyph glyph-name="uniE277" unicode="monitor" 
d="M900 374q22 0 38 16t15 37q1 21 -15 37t-38 16t-38 -16t-15 -37q-1 -21 15 -37t38 -16zM1514 580v690q0 16 -10 26t-26 10h-1157q-15 0 -25 -10t-11 -26v-690q1 -16 11 -26t25 -10h1157q16 0 26 10t10 26zM256 1433h1288q42 0 71 -29t29 -71v-906q0 -42 -29 -71t-71 -29
h-352q-24 1 -42 -17t-18 -43v-79q0 -24 18 -42t42 -18h4q26 0 45 -18t19 -45v-1q0 -28 -19 -46t-45 -18h-594q-26 0 -44 18t-19 46v1q1 27 19 45t44 18h6q24 0 42 18t18 42v79q0 25 -18 43t-42 17h-352q-56 0 -86 50q-14 23 -14 50v906q0 42 29 71t71 29z" />
    <glyph glyph-name="uniE278" unicode="keyboard" 
d="M1325 256q-25 0 -41 16t-16 41v39q0 24 16 40t41 17h55q24 -1 40 -17t16 -40v-39q0 -25 -16 -41t-40 -16h-55zM647 256q-25 0 -41 16t-16 41v39q0 24 16 40t41 17h506q25 -1 41 -17t16 -40v-39q0 -39 -34 -53q-10 -4 -23 -4h-506zM420 256q-24 0 -40 16t-16 41v39
q0 24 16 40t40 17h55q23 -1 40 -17t17 -40v-39q0 -25 -17 -41t-40 -16h-55zM1099 470q-25 0 -41 16t-16 40v40q0 24 16 40t41 16h54q25 0 41 -16t16 -40v-40q0 -24 -16 -40t-41 -16h-54zM873 470q-33 0 -45 20t-12 36v40q0 38 34 52q10 4 23 4h54q25 0 41 -16t16 -40v-40
q0 -24 -16 -40t-41 -16h-54zM420 470q-24 0 -40 16t-16 40v40q0 24 16 40t40 16h281q25 0 41 -16t16 -40v-40q0 -24 -16 -40t-41 -16h-281zM873 683q-39 1 -53 35q-4 10 -4 22v39q0 25 16 41t41 16h54q25 0 41 -16t16 -41v-39q0 -24 -16 -40t-41 -17h-54zM1436 523
q0 -21 -16 -37t-37 -16h-61q-22 0 -38 16t-16 37v137q0 9 -6 16t-17 7h-146q-25 1 -41 17t-16 40v39q0 25 16 41t41 16h281q24 0 40 -16t16 -41v-256zM647 683q-25 1 -41 17t-16 40v39q0 25 16 41t41 16h54q25 0 41 -16t16 -41v-39q0 -24 -16 -40t-41 -17h-54zM420 683
q-32 1 -44 21t-12 36v39q0 25 16 41t40 16h55q23 0 40 -16t17 -41v-39q0 -38 -34 -52q-10 -4 -23 -5h-55zM324 159h1152q16 0 28 12t12 29v682q0 17 -12 29t-28 12h-1152q-16 0 -28 -12t-12 -29v-682q0 -17 12 -29t28 -12zM156 126v840q0 38 28 66t66 28h1300q38 0 66 -28
t28 -66v-840q0 -38 -28 -66t-66 -28h-1300q-38 0 -66 28t-28 66z" />
    <glyph glyph-name="uniE281" unicode="printer" 
d="M641 0q-19 0 -33 14t-14 33v289q0 19 14 33t33 14h518q26 1 37 -17q10 -18 10 -30v-289q0 -19 -14 -33t-33 -14h-518zM1385 680v33q-1 19 -13 31t-30 12h-36q-18 0 -30 -12t-13 -31v-33q1 -18 13 -30t30 -13h36q18 1 30 13t13 30zM455 876h890q69 0 118 -49t49 -118v-313
q0 -70 -49 -118t-118 -48h-21q-16 0 -28 12t-12 27v90q0 42 -30 71t-70 29h-567q-41 0 -71 -29t-29 -71v-90q1 -15 -11 -27t-29 -12h-22q-69 0 -118 48t-49 118v313q0 69 49 118t118 49zM637 952q-19 0 -31 12t-12 31v110q0 19 12 31t31 12h526q19 0 31 -12t12 -31v-110
q0 -23 -16 -33t-27 -10h-526z" />
    <glyph glyph-name="uniE282" unicode="printing" 
d="M751 72h297q16 0 26 11t10 26t-10 26t-26 11h-297q-15 0 -25 -11t-11 -26q1 -15 11 -26t25 -11zM751 222h297q16 0 26 11t10 26t-10 26t-26 11h-297q-15 0 -25 -11t-11 -27q1 -16 11 -26t25 -10zM641 383h518q19 0 33 -14t14 -33v-289q0 -26 -17 -36q-17 -11 -30 -11
h-518q-19 0 -33 14t-14 33v289q0 19 14 33t33 14zM1385 680v33q-1 19 -13 31t-30 12h-36q-18 0 -30 -12t-13 -31v-33q1 -18 13 -30t30 -13h36q18 1 30 13t13 30zM455 876h890q69 0 118 -49t49 -118v-313q0 -70 -49 -118t-118 -48h-21q-16 0 -28 12t-12 27v90q0 42 -30 71
t-70 29h-567q-41 0 -71 -29t-29 -71v-90q1 -15 -11 -27t-29 -12h-22q-69 0 -118 48t-49 118v313q0 69 49 118t118 49zM637 952q-25 0 -34 16t-9 27v110q0 19 12 31t31 12h526q19 0 31 -12t12 -31v-110q0 -19 -12 -31t-31 -12h-526z" />
    <glyph glyph-name="uniE283" unicode="mouse" 
d="M1064 -36q-66 0 -130 18q-130 37 -211 134l-232 274q-45 59 17 79q61 19 152 70t146 97t87 79q61 61 107 123t60 89q24 48 49 40q24 -8 38 -24l231 -275q103 -122 99 -297q-3 -83 -41 -165t-103 -137t-134 -80t-135 -25zM570 962q-27 -23 -5 -52l135 -159q18 -22 14 -49
t-27 -43q-116 -79 -242 -116q-29 -9 -57 3t-44 38q-62 112 -50 239t94 227q10 14 11 32t-30 64t-57 130t-16 186q0 16 12 27t29 12t31 -13t11 -32q-12 -144 73 -276q10 -18 32 -23t40 5q112 60 238 48t223 -93q22 -19 28 -51t-7 -57q-58 -111 -158 -214q-20 -21 -47 -20
t-46 23l-134 159q-9 12 -24 13q-15 2 -27 -8z" />
    <glyph glyph-name="uniE284" unicode="text" 
d="M1056 390q0 -24 -18 -42t-41 -18h-320q-25 0 -43 18t-17 42q-1 24 17 42t43 18h320q23 0 41 -18t18 -42zM1200 686q0 -20 -18 -38t-42 -18h-463q-25 0 -43 18t-17 42q-1 24 17 42t43 18h463q35 0 47 -22q13 -22 13 -42zM1200 996q0 -24 -18 -43q-18 -18 -42 -18h-463
q-35 -1 -47 21q-13 22 -13 42q-1 20 17 39q18 18 43 18h463q24 1 42 -17t18 -42zM483 103h849q18 0 30 13t13 31v1142q-1 19 -13 31t-30 12h-849q-19 0 -31 -12t-12 -31v-1142q0 -18 12 -31t31 -13zM301 64v1308q1 38 27 64t63 26h1018q37 0 63 -26t27 -64v-1308
q-1 -38 -27 -64t-63 -26h-1018q-37 0 -63 26t-27 64z" />
    <glyph glyph-name="uniE285" unicode="ribbon" 
d="M900 243q-39 0 -66 -27l-246 -246q-21 -22 -48 -10t-27 41v1322q-1 41 29 71t72 29h572q42 1 72 -29t29 -71v-1322q0 -29 -27 -41t-48 10l-246 246q-27 27 -66 27z" />
    <glyph glyph-name="uniE286" unicode="gamepad" 
d="M1170 605q42 -1 72 29t29 72q1 42 -29 72t-72 29q-42 1 -72 -29t-30 -72t30 -72t72 -29zM659 657q0 13 13 13h39q16 0 27 12q20 22 6 41q-15 19 -34 19h-38q-13 0 -13 13v37q0 14 -9 26t-24 12q-15 2 -27 -9t-12 -26v-40q0 -13 -13 -13h-37q-34 0 -38 -33q-2 -15 9 -27
t27 -12h39q13 0 13 -13v-37q0 -34 33 -38q15 -2 27 9t12 27v39zM1247 1096q77 0 143 -52q114 -90 180 -298q66 -209 75 -419q1 -187 -109 -198q-65 -6 -125 66q-155 185 -235 221t-190 38q-32 0 -86 1q-54 -1 -86 -1t-70 -4t-60 -10t-54 -21q-86 -39 -241 -224
q-61 -72 -125 -66q-110 11 -109 198q9 210 55 356q47 147 91 229q43 82 109 132q66 52 143 52q33 0 91 -18t128 -37q70 -18 128 -18t128 18q70 19 128 37t91 18z" />
    <glyph glyph-name="uniE287" unicode="portable&#x2d;game" 
d="M371 646q0 -26 -19 -46q-19 -19 -46 -19t-46 19q-19 20 -19 46t19 45t46 19t46 -19t19 -45zM306 511q56 -1 95 39t39 96t-39 94q-39 40 -95 40t-95 -40t-39 -94q0 -56 39 -96t95 -39zM1532 590q0 16 16 16h65q13 0 13 14v51q0 14 -13 14h-65q-16 0 -16 16v65q0 14 -14 14
h-52q-13 0 -13 -14v-65q0 -16 -17 -16h-64q-14 0 -14 -14v-51q0 -14 14 -14h64q17 0 17 -16v-65q0 -14 13 -14h52q14 0 14 14v65zM1275 390v512q0 10 -7 17t-17 7h-701q-10 0 -17 -7t-7 -17v-512q0 -10 7 -17t17 -7h701q10 0 17 7t7 17zM473 1043h854q107 0 198 -53
q91 -54 143 -144t53 -197q-1 -107 -53 -197t-143 -144q-91 -53 -198 -53h-854q-107 0 -198 53q-91 54 -143 144t-53 197q1 107 53 197t143 144q91 53 198 53z" />
    <glyph glyph-name="uniE288" unicode="tablet" 
d="M900 73q26 1 44 19t19 44q-1 26 -19 44t-44 19q-26 -1 -44 -19t-19 -44q1 -26 19 -44t44 -19zM546 267h705q27 0 47 20t20 47v929q0 39 -34 58q-16 9 -33 9h-705q-28 0 -48 -20t-19 -47v-929q-1 -27 19 -47t48 -20zM354 126v1216q0 50 35 85t85 35h852q50 0 85 -35
t35 -85v-1216q0 -48 -35 -84t-85 -36h-852q-50 0 -85 36t-35 84z" />
    <glyph glyph-name="uniE311" unicode="calculator" 
d="M1226 222v53q0 20 -14 35t-36 15h-66q-22 0 -36 -15t-14 -35v-53q0 -22 14 -36t36 -14h66q22 0 36 14t14 36zM985 222v53q0 20 -15 35t-35 15h-67q-22 0 -36 -15t-14 -35v-53q0 -22 14 -36t36 -14h67q28 0 39 18t11 32zM743 222v53q-1 20 -15 35t-35 15h-67
q-20 0 -35 -15t-15 -35v-53q0 -22 15 -36t35 -14h67q30 0 40 18t10 32zM1226 445v53q0 22 -14 36t-36 14h-66q-22 0 -36 -14t-14 -36v-53q0 -20 14 -35t36 -15h66q22 0 36 15t14 35zM985 445v53q0 22 -15 36t-35 14h-67q-22 0 -36 -14t-14 -36v-53q0 -20 14 -35t36 -15h67
q20 0 35 15t15 35zM743 445v53q-1 22 -15 36t-35 14h-67q-20 0 -35 -14t-15 -36v-53q0 -20 15 -35t35 -15h67q21 0 35 15t15 35zM1226 669v53q0 22 -14 36t-36 14h-66q-22 0 -36 -14t-14 -36v-53q0 -21 14 -35t36 -15h66q22 1 36 15t14 35zM985 669v53q0 22 -15 36t-35 14
h-67q-29 0 -40 -18q-10 -18 -10 -32v-53q0 -21 14 -35t36 -15h67q28 0 39 18t11 32zM743 669v53q-1 22 -15 36t-35 14h-67q-27 0 -39 -18q-11 -18 -11 -32v-53q0 -21 15 -35t35 -15h67q30 0 40 18t10 32zM1247 962v215q1 14 -9 24t-24 10h-628q-14 0 -24 -10t-9 -24v-215
q-1 -14 9 -24t24 -9h628q14 -1 24 9t9 24zM533 1377h737q34 -1 58 -25t25 -59v-1210q-1 -35 -25 -59t-58 -24h-737q-35 0 -59 24t-24 59v1210q0 35 24 59t59 25z" />
    <glyph glyph-name="uniE312" unicode="floppy&#x2d;disc" 
d="M776 906q-24 0 -40 16t-16 40v298q0 24 16 40t40 16h112q24 0 40 -16t16 -40v-298q0 -24 -16 -40t-40 -16h-112zM1302 830v430q0 24 17 40t40 16h115q36 0 60 -24t24 -60v-1148q0 -36 -24 -60t-60 -24h-1148q-36 0 -60 24t-24 60v954q0 35 24 59l200 200q20 19 48 19h32
q24 0 40 -16t16 -40v-430q0 -23 17 -40t40 -17h587q24 0 40 17t16 40z" />
    <glyph glyph-name="uniE313" unicode="flashlight" 
d="M1264 926q60 -60 120 -87t82 -4t-4 82t-88 119q-61 60 -120 88q-60 26 -82 4t5 -82t87 -120zM1517 787l-179 -177q-58 -58 -144 -64q-42 -2 -62 -10t-44 -30q-22 -22 -252 -246t-263 -256t-87 -20q-54 14 -100 62q-48 48 -62 101q-14 54 15 82l496 512q41 44 45 68
q2 25 4 49t9 60t54 82l179 178q38 39 123 9t166 -111q81 -82 111 -166t-9 -123z" />
    <glyph glyph-name="uniE314" unicode="bell" 
d="M900 0q-93 0 -153 84q-7 10 -3 22t20 12l136 -3l136 3q16 0 20 -12t-3 -22q-60 -84 -153 -84zM900 173q-230 0 -450 39q-56 10 -82 36t-26 52t10 50t38 48t34 30q42 42 49 189q19 387 211 495q21 12 80 32q58 20 80 62q4 8 8 12q3 2 12 10t28 8q20 0 28 -2t14 -4t10 -8
q7 -7 12 -17q20 -40 89 -64q69 -25 97 -45q26 -22 48 -44t38 -48q84 -133 96 -331q8 -136 17 -170q9 -35 19 -52t16 -23t18 -16q64 -53 64 -90q0 -36 -10 -54q-24 -44 -98 -56q-220 -39 -450 -39z" />
    <glyph glyph-name="uniE315" unicode="hourglass" 
d="M897 397q-27 0 -112 -58t-153 -126q-19 -19 -10 -41q8 -22 24 -31q32 -19 104 -38q71 -20 122 -20q52 1 77 3t47 6t42 8q122 29 136 61q13 32 -2 48q-16 15 -44 41t-72 60q-44 36 -88 62t-71 25zM900 472q60 0 60 59q0 19 -14 63t-15 88q1 44 3 62t8 32q6 16 11 30
q6 14 15 28t16 23t18 21t17 19t25 26q18 18 6 34q-12 15 -24 9q-53 -28 -126 -27q-72 0 -122 25q-16 9 -28 -7q-12 -15 -4 -23l23 -24q17 -16 23 -24t20 -26q17 -21 37 -62t20 -85q-1 -79 -15 -117t-14 -65q0 -59 60 -59zM900 -56q-134 0 -225 36t-125 56q-33 21 -50 58
t-17 63l-1 128q0 59 47 133q17 27 81 102q64 76 90 110q59 75 -12 166q-20 25 -83 99q-63 73 -83 101t-30 73t-10 164t145 179q119 50 273 50q225 0 346 -90q72 -53 72 -137t-6 -143t-32 -93q-25 -35 -88 -108q-62 -73 -90 -109q-60 -78 10 -168q14 -19 78 -94t81 -102
q47 -74 47 -133l-1 -128q0 -39 -21 -72q-22 -33 -40 -45t-44 -24t-73 -30q-105 -42 -239 -42z" />
    <glyph glyph-name="uniE316" unicode="smartphone" 
d="M928 -103q31 0 53 22t22 53t-22 53q-21 22 -53 22t-54 -22t-22 -53t22 -53t54 -22zM1260 164v970q0 28 -20 48t-47 19h-532q-27 1 -47 -19t-20 -48v-970q0 -28 20 -48t47 -19h532q27 -1 47 19t20 48zM1017 1294q37 0 37 40q0 12 -11 24q-11 11 -26 11h-179q-15 0 -26 -11
q-11 -10 -11 -26t11 -27t26 -11h179zM584 1462h688q48 0 82 -34t35 -82v-1394q-1 -48 -35 -82t-82 -34h-688q-48 0 -82 34t-34 82v1394q0 48 34 82t82 34z" />
    <glyph glyph-name="uniE317" unicode="cellphone" 
d="M1217 27v71q-1 20 -15 35t-35 15h-70q-21 0 -35 -15t-15 -35v-71q1 -21 15 -35t35 -15h70q21 1 35 15t15 35zM994 27v71q0 20 -15 35t-35 15h-71q-21 0 -35 -15t-15 -35v-71q0 -30 18 -40t32 -10h71q22 1 36 15t14 35zM774 27v71q0 20 -14 35t-36 15h-71q-20 0 -35 -15
t-15 -35v-71q1 -29 19 -40q18 -10 31 -10h71q22 1 36 15t14 35zM1217 249v71q-1 22 -15 36t-35 14h-70q-21 0 -35 -14t-15 -36v-71q1 -21 15 -35t35 -15h70q21 1 35 15t15 35zM994 249v71q0 22 -15 36t-35 14h-71q-21 0 -35 -14t-15 -36v-71q1 -33 31 -46q10 -4 19 -4h71
q20 1 35 15t15 35zM774 249v71q0 22 -14 36t-36 14h-71q-20 0 -35 -14t-15 -36v-71q0 -21 15 -35t35 -15h71q22 1 36 15t14 35zM856 452q22 -22 54 -22t54 22t23 54q-1 32 -23 54t-54 23q-32 -1 -54 -23t-22 -54t22 -54zM1242 715v552q0 27 -20 47t-47 19h-534
q-27 1 -47 -19t-19 -47v-552q0 -37 33 -57q15 -9 33 -9h534q27 -1 47 19t20 47zM567 1462h687q49 0 83 -34t34 -83v-1393q0 -48 -34 -82t-83 -34h-687q-67 0 -101 58q-16 27 -16 58v1393q0 49 34 83t83 34z" />
    <glyph glyph-name="uniE318" unicode="lightbulb" 
d="M703 68q1 18 11 28t10 22t-10 22t-11 30q0 18 13 30t30 13h299q18 -1 31 -13t13 -30q-1 -18 -11 -30q-10 -10 -10 -22t10 -22t11 -28q-1 -18 -17 -34t0 -33q33 -33 5 -66q-9 -8 -19 -11l-65 -15q-25 -5 -37 -23q-40 -66 -91 -32q-15 10 -28 30t-38 25l-65 15
q-10 3 -19 11q-11 14 -11 32t16 34q16 17 0 33t-17 34zM1053 281h-314q-57 0 -71 70q-14 143 -70 259q-24 50 -50 102t-49 97q-50 99 -50 191t23 160q45 130 161 216t263 86q90 0 172 -35t143 -94q60 -59 96 -141t36 -160q1 -78 -19 -142t-50 -121t-60 -115
q-76 -146 -90 -303q-13 -70 -71 -70z" />
    <glyph glyph-name="uniE321" unicode="telephone" 
d="M1356 -84q-19 0 -26 1l-24 3t-54 16t-106 46q-70 34 -146 81t-176 126t-196 173q-95 94 -174 196q-126 161 -194 298q-68 138 -73 172q-4 33 -5 42q-4 40 14 85t87 113t123 82t101 -36q79 -79 186 -266q33 -57 -5 -111q-12 -18 -38 -54t-35 -47q-44 -60 -6 -120
q67 -106 167 -206t206 -167q59 -37 120 6l32 24q20 15 38 27t30 23q54 39 112 5q190 -111 266 -186q50 -48 36 -102t-82 -122t-99 -81q-30 -13 -45 -17t-34 -4z" />
    <glyph glyph-name="uniE322" unicode="battery&#x2d;full" 
d="M1644 703v-288q0 -45 -36 -67q-18 -10 -40 -8t-42 -8q-44 -21 -45 -72v-42q1 -38 -27 -66t-67 -28h-1066q-37 0 -65 28t-28 66v683q0 37 28 65t65 28h1066q39 0 67 -28t27 -65v-46q0 -41 34 -63q16 -10 35 -12q94 -4 94 -77z" />
    <glyph glyph-name="uniE323" unicode="battery&#x2d;half" 
d="M1344 292v527q0 25 -16 35q-16 9 -27 9h-496q-23 1 -35 -19t-4 -41l211 -513q18 -41 62 -41h262q19 1 31 13t12 30zM1634 703v-288q0 -45 -36 -67q-17 -10 -39 -8q-23 2 -43 -8q-46 -21 -45 -72v-42q1 -38 -27 -66t-66 -28h-1066q-38 0 -66 28t-28 66v683q0 37 28 65
t66 28h1066q38 0 66 -28t27 -65v-46q0 -41 34 -63q16 -10 35 -12q94 -4 94 -77z" />
    <glyph glyph-name="uniE324" unicode="battery&#x2d;low" 
d="M1348 295v527q0 25 -16 34t-27 9h-869q-23 0 -36 -19t-4 -40l211 -513q17 -41 62 -41h636q17 0 30 12t13 31zM1638 706v-288q0 -44 -36 -66q-18 -10 -37 -10q-39 2 -65 -20q-25 -22 -25 -59v-43q1 -38 -27 -66t-67 -27h-1066q-37 -1 -65 27t-28 66v684q0 38 28 66t65 27
h1066q53 -1 81 -47q12 -22 13 -46v-47q0 -29 20 -51t48 -23q95 -4 95 -77z" />
    <glyph glyph-name="uniE325" unicode="battery&#x2d;charge" 
d="M970 568v160q0 27 -23 41t-47 2l-357 -179q-7 -4 -5 -12t10 -7l244 30q14 1 24 -8t10 -22v-161q0 -26 23 -40t47 -3l357 180q7 3 5 11t-11 7l-244 -29q-13 -2 -23 7t-10 23zM1645 703v-288q-1 -45 -37 -67q-18 -10 -45 -8q-29 2 -55 -21t-26 -59v-42q0 -38 -28 -66
t-65 -28h-1066q-39 0 -67 28t-27 66v683q-1 37 27 65t67 28h1066q37 0 65 -28t28 -65v-46q0 -41 34 -63q16 -10 35 -12q94 -4 94 -77z" />
    <glyph glyph-name="uniE326" unicode="flash" 
d="M1266 486h-372q-31 0 -52 -24t-17 -54l68 -566q2 -18 -16 -24t-27 11l-416 827q-35 84 29 136q31 26 71 26h372q31 0 52 24t17 54l-68 566q-2 18 16 24t27 -11l416 -827q35 -84 -29 -136q-31 -26 -71 -26z" />
    <glyph glyph-name="uniE327" unicode="wrench" 
d="M1524 31q0 25 -18 43t-42 17q-25 1 -43 -17t-18 -43t18 -43t43 -17q24 -1 42 17t18 43zM551 1317q150 -2 268 -120q64 -64 87 -169t-12 -201q-13 -36 17 -64l664 -623q46 -44 47 -108t-45 -109t-109 -45t-107 46l-627 660q-26 30 -65 17q-95 -35 -201 -13t-170 88
q-120 120 -120 270q-1 30 28 42t51 -9l143 -144q19 -19 38 -24q47 -12 130 71l46 46q92 92 68 141q-6 12 -21 27l-142 142q-22 22 -10 51t42 28z" />
    <glyph glyph-name="uniE328" unicode="settings" 
d="M1179 412q81 82 101 171t12 159t-38 127q-66 127 -192 185t-245 30t-201 -110t-102 -171t-11 -159t38 -127q64 -127 190 -185q125 -58 246 -30t202 110zM1663 752v-118q0 -40 -34 -60q-16 -10 -35 -9h-19q-72 1 -98 -73q-12 -34 -28 -68q-34 -69 17 -122q34 -34 34 -62
t-20 -49l-83 -84q-21 -20 -49 -20t-49 20l-15 15q-52 54 -122 18q-32 -16 -66 -28q-34 -11 -54 -38t-20 -61v-20q0 -29 -20 -49t-49 -20h-117q-29 0 -49 20t-20 49v23q1 74 -77 100q-28 10 -61 26q-70 35 -123 -18l-16 -17q-20 -20 -49 -20t-49 20l-83 84q-20 21 -20 49
t20 48l18 18q51 51 17 121q-16 31 -26 65q-12 34 -39 54t-60 19h-24q-29 1 -49 21t-21 48v118q1 28 21 48t49 21h24q33 -1 60 19t39 54t26 65q34 70 -17 121l-18 18q-20 20 -20 48t20 49l83 83q20 20 49 20t49 -20l16 -16q53 -53 122 -18q32 16 66 28t54 38t19 60v23
q0 29 20 49t49 20h117q29 0 49 -20t20 -49v-21q0 -72 74 -98q34 -12 66 -28q71 -35 122 18l15 14q21 20 49 20t49 -20l83 -83q20 -21 20 -49t-20 -48q-65 -65 -33 -133q18 -37 30 -71q26 -73 98 -73h19q40 0 60 -35q9 -16 9 -34z" />
    <glyph glyph-name="uniE331" unicode="&#x7a;oom&#x2d;in" 
d="M788 946q0 -24 23 -24h122q13 0 23 -10t10 -23v-39q0 -13 -10 -23t-23 -10h-122q-11 0 -17 -7t-6 -16v-122q0 -13 -10 -23t-24 -10h-38q-14 0 -24 10t-9 23v122q0 9 -7 16t-17 7h-121q-14 0 -24 10t-10 23v39q0 13 10 23t24 10h121q10 0 17 7t7 17v121q-1 13 9 23t24 10
h38q14 0 24 -10t10 -23v-121zM309 892q-1 -93 21 -158q41 -125 152 -209q110 -83 239 -83q131 0 229 57t155 155t57 230q0 131 -94 251q-125 160 -333 160q-116 0 -214 -57t-155 -155t-57 -191zM1261 502l331 -300q40 -37 46 -90q6 -52 -28 -98q-36 -46 -98 -48t-102 41
l-311 335q-19 22 -47 26t-51 -9q-161 -83 -345 -59t-320 156q-137 132 -167 316q-41 244 111 446q87 116 230 179q144 63 325 36q182 -27 314 -165q131 -138 155 -322t-60 -345q-12 -25 -8 -53t25 -46z" />
    <glyph glyph-name="uniE332" unicode="&#x7a;oom&#x2d;out" 
d="M533 809q-12 1 -21 9t-9 21v44q0 13 9 21t21 9h407q12 -1 21 -9t9 -21v-44q0 -17 -11 -24q-11 -6 -19 -6h-407zM309 862q0 -116 57 -214t155 -156t214 -57q117 -1 215 57t155 156t57 214t-57 214t-155 156t-215 57q-116 1 -214 -57t-155 -156t-57 -214zM1261 495
l331 -300q40 -37 46 -90t-28 -98q-36 -45 -98 -48t-102 41l-311 335q-19 21 -47 25t-51 -8q-161 -83 -345 -59t-320 156q-137 132 -167 316q-41 243 111 447q87 117 231 179t325 35q181 -28 313 -166q131 -138 155 -321q24 -184 -60 -344q-12 -25 -8 -53t25 -47z" />
    <glyph glyph-name="uniE333" unicode="search" 
d="M309 862q0 -116 57 -214t155 -156t214 -57q117 -1 215 57t155 156t57 214t-57 214t-155 156t-215 57q-116 1 -214 -57t-155 -156t-57 -214zM1261 495l331 -300q40 -37 46 -90t-28 -98q-36 -45 -98 -48t-102 41l-311 335q-19 21 -47 25t-51 -8q-161 -83 -345 -59t-320 156
q-137 132 -167 316q-41 243 111 447q87 117 231 179t325 35q181 -28 313 -166q131 -138 155 -321q24 -184 -60 -344q-12 -25 -8 -53t25 -47z" />
    <glyph glyph-name="uniE334" unicode="cloud&#x2d;upload" 
d="M1398 31h-249q-42 -1 -71 29t-29 71v108q0 18 13 31t32 13h101q21 0 30 19t-4 35l-265 317q-13 16 -34 16t-34 -16l-264 -317q-14 -16 -5 -35t30 -19h100q19 0 32 -13t13 -31v-108q0 -41 -30 -71t-70 -29h-288q-88 0 -166 40t-127 112t-55 164t42 174q46 82 127 128
q46 28 40 74q-14 116 68 212q53 61 124 81q137 39 243 -35q22 -15 50 -11t42 27q62 95 165 143t229 31t220 -116q46 -48 75 -108q52 -108 36 -221q-7 -47 35 -67q97 -47 149 -143q51 -96 33 -212t-116 -195q-98 -78 -222 -78z" />
    <glyph glyph-name="uniE335" unicode="cloud" 
d="M1413 31h-993q-88 1 -166 41t-126 112t-54 164t40 174t129 128q45 25 38 71q-16 127 84 231q75 79 177 79q103 0 173 -49q23 -16 51 -12t43 27q61 95 164 143t211 34t189 -75t129 -161t31 -212q-5 -48 36 -67q97 -47 149 -143t36 -192q-14 -96 -64 -160t-123 -98
q-73 -35 -154 -35z" />
    <glyph glyph-name="uniE336" unicode="cloud&#x2d;up" 
d="M886 486q0 17 -18 17h-46q-12 -1 -16 11t3 20l89 89q8 8 20 8t19 -8l89 -89q8 -8 4 -20t-17 -11h-46q-18 0 -18 -17v-83q0 -31 -32 -31q-13 0 -22 9t-9 22v83zM914 232q112 0 191 78t79 191q0 73 -36 135t-98 98t-126 36q-121 0 -200 -79t-79 -191t79 -190
q78 -78 190 -78zM1413 31h-993q-88 1 -166 41t-126 112t-54 164t40 174t129 128q45 24 38 71q-16 127 84 231q75 79 177 79q103 0 173 -49q23 -16 51 -12t43 27q61 95 164 143t211 34t189 -75t129 -161t31 -212q-3 -49 36 -67q97 -47 149 -143t32 -212q-18 -116 -116 -195
q-98 -78 -221 -78z" />
    <glyph glyph-name="uniE337" unicode="cloud&#x2d;down" 
d="M906 375q-12 0 -20 8l-89 89q-7 8 -3 19t16 11h46q6 0 12 6t6 12v82q0 12 9 22t23 10t22 -10q9 -10 9 -22v-82q-1 -6 5 -12t13 -6h46q12 0 17 -11t-4 -19l-89 -89q-7 -8 -19 -8zM906 237q110 0 188 78t79 189q-1 111 -79 189t-188 78t-190 -78q-78 -78 -78 -189t78 -189
q80 -78 190 -78zM1407 31h-993q-88 1 -166 41t-126 112t-54 164t41 174t128 128q46 25 39 71q-17 127 83 231q75 79 195 79q85 0 156 -49q22 -16 50 -12t43 27q61 95 164 143t211 34t189 -75t129 -161t32 -212q-7 -46 35 -67q97 -47 149 -143t34 -212t-116 -195
q-98 -78 -223 -78z" />
    <glyph glyph-name="uniE338" unicode="cloud&#x2d;check" 
d="M882 408q-9 0 -15 6l-63 63q-9 9 -9 21q1 12 9 22q8 8 20 8t22 -8l36 -36l99 98q9 9 21 9q12 -1 22 -9q8 -8 8 -20t-8 -22l-126 -126q-7 -6 -16 -6zM911 237q71 -1 133 35t98 98t36 134q0 111 -78 189t-190 78q-110 0 -188 -78t-79 -189q1 -111 79 -189t189 -78zM1412 31
h-993q-87 1 -165 41t-127 112t-55 164t42 174q47 82 128 128q46 25 39 71q-17 127 83 231q75 79 195 79q85 0 156 -49q22 -16 50 -12t43 27q61 95 164 143t211 34t189 -75t129 -161t32 -212q-7 -48 35 -67q97 -47 149 -143t33 -212q-18 -116 -116 -195q-98 -78 -222 -78z
" />
    <glyph glyph-name="uniE341" unicode="cloud&#x2d;delete" 
d="M1011 430q1 -10 -7 -18t-18 -7q-10 0 -17 8l-53 53q-2 2 -4 0l-53 -53q-8 -8 -18 -8q-9 -1 -17 7t-8 18t7 18l53 53q2 2 0 4l-53 53q-7 8 -7 18t8 17t17 7q10 0 18 -7l53 -53q2 -2 4 0l53 53q7 7 17 7t18 -7t7 -17q0 -10 -7 -18l-53 -53q-2 -2 0 -4l53 -53q7 -8 7 -18z
M910 237q110 0 190 78q78 78 78 189t-78 189t-190 78q-110 0 -188 -78t-79 -189q1 -111 79 -189t188 -78zM1412 31h-993q-87 1 -165 41t-127 112t-55 164t42 174q47 82 128 128q42 23 39 71q-17 127 83 231q75 79 195 79q85 0 156 -49q22 -16 50 -12t43 27q61 95 164 143
t211 34t189 -75t129 -161t32 -212q-7 -48 35 -67q97 -47 149 -143t33 -212q-18 -116 -116 -195q-98 -78 -222 -78z" />
    <glyph glyph-name="uniE342" unicode="bluetooth" 
d="M918 419v-235q0 -16 14 -22t26 6l110 110q10 10 10 24t-10 23l-110 110q-12 11 -26 5t-14 -21zM1077 1022q0 14 -9 23l-110 110q-12 11 -26 5t-14 -22v-233q0 -16 14 -22t26 5l110 110q9 10 9 24zM388 286q0 32 22 55l291 290q13 13 13 31t-13 31l-291 290q-22 22 -22 54
t22 54q22 23 55 23q32 0 54 -22l207 -206q12 -11 26 -5t14 21v560q0 29 26 40t48 -9l446 -449q9 -10 9 -24t-9 -23l-305 -305q-13 -13 -13 -31t13 -30l305 -305q9 -10 9 -24t-9 -23l-446 -449q-22 -20 -48 -9t-26 40v559q0 16 -14 22t-26 -5l-206 -206q-23 -21 -55 -21
q-33 0 -55 22t-22 54z" />
    <glyph glyph-name="uniE343" unicode="wifi" 
d="M886 2q-26 0 -46 19l-98 98q-47 47 -9 89q81 65 195 49q57 -8 89 -33q32 -24 34 -52t-18 -48l-103 -103q-18 -19 -44 -19zM885 574q103 0 203 -40t178 -118q16 -16 14 -42t-18 -44t-42 -18q-26 -1 -43 16q-79 80 -185 108t-213 0q-106 -28 -186 -108q-18 -20 -45 -20
t-46 18q-17 20 -16 46t19 44q77 78 177 118t203 40zM885 734q-132 0 -262 -52t-230 -153q-18 -17 -45 -19t-45 16q-19 18 -17 44t20 45q118 118 270 180t307 63q155 0 307 -60t270 -178q17 -16 18 -44q0 -28 -16 -45t-42 -18t-42 16q-100 101 -230 153t-263 52zM886 1023
q-186 0 -372 -74q-184 -74 -326 -216q-18 -18 -45 -19t-46 17q-17 19 -16 45t19 46q218 216 504 290q136 36 281 35q458 0 786 -325q16 -17 15 -43t-18 -43q-16 -17 -42 -18t-44 15q-142 142 -326 216t-370 74z" />
    <glyph glyph-name="uniE344" unicode="firewire" 
d="M1062 58q0 -18 -11 -38t-43 -20h-258q-22 0 -38 16t-16 38t16 39q16 16 38 16h258q22 0 38 -16q16 -17 16 -35zM1062 242q0 -22 -16 -38t-38 -16h-258q-22 0 -38 16t-16 38t16 39q16 16 38 16h258q22 0 38 -16q16 -17 16 -39zM1034 700q0 64 -46 110t-109 45
q-63 1 -109 -45t-46 -111t45 -110t109 -45t110 46t46 110zM879 979q115 0 197 -82q82 -81 82 -197t-82 -198t-197 -82t-197 82t-82 198t82 197q82 82 197 82zM702 1114q0 -22 -16 -39l-183 -183q-17 -15 -39 -15q-22 -1 -38 15t-16 38t16 39l183 183q17 16 39 16t38 -16
t16 -38zM569 1246q0 -22 -16 -38l-183 -182q-16 -16 -38 -16t-39 16q-16 16 -16 38t16 38l183 183q16 16 38 16t39 -16q16 -17 16 -39zM1069 1102q0 20 15 35l190 190q16 15 36 15t35 -15l163 -163q15 -16 15 -36t-15 -35l-190 -190q-16 -15 -36 -15t-35 15l-163 163
q-15 16 -15 36z" />
    <glyph glyph-name="uniE345" unicode="usb" 
d="M1214 1035q0 18 -19 19t-28 16t-9 26v114q0 18 13 31t31 13h129q19 0 31 -13t13 -31v-114q0 -16 -11 -28t-28 -15q-17 -2 -17 -18q-6 -125 -40 -203q-35 -78 -141 -152q-30 -20 -38 -28l-18 -14q-124 -99 -124 -257v-123q0 -42 40 -66t64 -66t25 -93q0 -89 -68 -145
t-151 -40q-130 24 -154 163q-8 49 16 101t60 72q65 39 41 98q-35 85 -95 131q-34 23 -110 83q-74 60 -102 138t-31 200q0 26 -21 42q-47 36 -47 92q1 56 41 94q40 36 88 30t78 -36t34 -67q7 -73 -46 -114q-33 -25 -18 -120t48 -133q34 -37 71 -64l62 -47q22 -16 46 -4t24 39
v727q-1 17 -13 30t-30 13h-10q-13 0 -19 10t1 22l105 165q7 10 19 10t18 -10l105 -165q7 -12 1 -22t-19 -10h-10q-19 0 -31 -13t-12 -30v-510q0 -27 25 -39t47 5l16 13q40 32 58 48q58 48 84 100t26 145z" />
    <glyph glyph-name="uniE346" unicode="plug" 
d="M390 -23q-32 0 -54 23t-21 54t23 53l222 222q51 51 20 117q-54 114 -32 244t116 224l76 76q22 23 54 22q32 -2 56 -26t56 -24q30 0 52 21l143 144q20 19 49 19t49 -20q19 -21 18 -49t-21 -49l-142 -141q-21 -23 -21 -53t21 -51l68 -68q22 -21 52 -21t52 21l143 144
q21 19 49 19t48 -20t19 -49q-1 -28 -21 -48l-142 -142q-22 -23 -22 -53t24 -54t26 -56q1 -32 -22 -54l-76 -76q-94 -94 -224 -116t-245 33q-29 13 -61 7t-55 -28l-224 -223q-21 -22 -53 -22z" />
    <glyph glyph-name="uniE347" unicode="outlet" 
d="M900 252q20 0 34 -14t15 -33v-25q1 -10 -7 -18t-19 -8h-46q-26 0 -26 26v25q1 19 15 33t34 14zM1064 313q0 -21 -20 -21h-28q-20 0 -20 21v131q0 21 20 21h28q20 0 20 -21v-131zM805 313q0 -21 -21 -21h-28q-20 0 -20 21v131q0 21 20 21h28q21 0 21 -21v-131zM1165 223
v220q0 55 -39 93t-93 39h-266q-55 -1 -93 -39t-39 -93v-220q1 -55 39 -93t93 -39h266q54 1 93 39t39 93zM900 935q20 0 34 -14t15 -33v-25q1 -11 -7 -19t-19 -7h-46q-11 -1 -19 7t-7 19v25q1 19 15 33t34 14zM1016 975q-8 0 -14 6t-6 14v132q0 8 6 14t14 6h28q8 0 14 -6
t6 -14v-132q0 -8 -6 -14t-14 -6h-28zM805 995q0 -20 -21 -20h-28q-8 0 -14 6t-6 14v132q0 8 6 14t14 6h28q21 0 21 -20v-132zM1165 905v220q0 55 -39 93t-93 39h-266q-55 -1 -93 -39t-39 -93v-220q1 -54 39 -93t93 -39h266q54 0 93 39t39 93zM526 1462h748q48 0 82 -34
t33 -81v-1347q1 -47 -33 -81t-82 -34h-748q-48 0 -82 34t-33 81v1347q-1 47 33 81t82 34z" />
    <glyph glyph-name="uniE348" unicode="command" 
d="M1278 146q30 0 52 22t22 46q0 25 -10 42q-21 36 -58 36q-36 0 -57 -22t-21 -51t21 -51t51 -22zM548 146q30 0 52 22q21 22 21 51t-21 51t-46 22t-42 -10q-36 -20 -36 -56t21 -58t51 -22zM1060 511v146q0 29 -22 51t-51 22h-146q-31 0 -52 -22t-21 -51v-146q0 -29 21 -51
t52 -22h146q29 0 51 22t22 51zM1278 1022q-30 0 -51 -21t-21 -51t21 -52t51 -22t52 22t22 52t-22 51t-52 21zM556 876q22 0 44 22q21 22 21 51t-21 51q-22 22 -52 22t-51 -22t-21 -44t6 -36t15 -22q9 -10 23 -16t36 -6zM1060 218v3q0 31 -22 51t-51 20h-146q-31 0 -52 -22
t-21 -51q0 -91 -64 -155t-156 -64q-90 0 -154 64t-65 155q1 91 65 155t154 64q31 0 52 22t21 51v146q0 29 -21 51t-52 22q-90 0 -154 64t-65 156q1 90 65 154t154 64t156 -64q64 -64 64 -155q0 -29 21 -51t52 -22h146q29 0 51 22t22 51q0 91 64 155t139 64t125 -29t80 -79
t30 -126t-64 -140t-155 -64q-31 0 -52 -22t-21 -51v-146q0 -29 21 -51t52 -22q91 0 155 -64t64 -155t-64 -155t-156 -64q-90 0 -154 64t-64 154z" />
    <glyph glyph-name="uniE351" unicode="shuffle" 
d="M1002 485q34 0 60 -24l98 -99q28 -28 69 -28h34q15 0 27 12t12 27v83q0 16 14 22t25 -3l251 -192q17 -12 17 -33t-17 -33l-251 -192q-11 -9 -25 -3t-14 22v84q0 16 -12 28t-27 11h-35q-110 0 -188 78l-97 97q-23 25 -23 60t24 59t58 24zM662 657q-34 0 -58 24l-96 96
q-28 29 -69 29h-165q-34 0 -58 24t-25 59v1q1 36 25 60t58 24h164q111 0 189 -78l95 -96q24 -24 24 -59t-24 -59q-26 -24 -60 -25zM191 258q1 28 25 52t58 24h165q41 0 69 29l532 532q78 78 188 78l35 1q15 0 27 11t12 27v84q0 16 14 22t25 -3l251 -192q17 -12 17 -33
t-17 -33l-251 -192q-11 -9 -25 -3t-14 22v83q0 23 -14 31t-25 8h-34q-40 0 -69 -28l-533 -534q-78 -78 -189 -78h-164q-49 2 -72 44q-11 20 -11 48z" />
    <glyph glyph-name="uniE352" unicode="ethernet" 
d="M1280 632q0 -40 -28 -68t-62 -28t-56 13q-48 28 -48 76q0 49 28 77t69 28t69 -28q28 -30 28 -70zM716 632q0 -40 -28 -68t-69 -28t-69 28t-28 68t28 70q28 28 69 28t69 -28q28 -30 28 -70zM1015 632q1 -48 -33 -80q-34 -33 -81 -33t-81 33q-34 32 -33 80q-1 48 33 82
t81 33q47 1 81 -33t33 -82zM1460 632q0 22 -15 38l-219 219q-28 28 -28 68q0 41 29 69q28 28 68 28t68 -28l356 -356q15 -16 15 -38t-15 -37l-356 -355q-28 -29 -68 -29q-40 1 -68 29q-29 28 -29 68t28 69l219 218q15 15 15 37zM505 211q-40 0 -68 29l-356 355
q-15 15 -15 37t15 38l356 356q28 28 68 28t68 -28q29 -28 29 -69q0 -40 -28 -68l-219 -219q-15 -16 -15 -38t15 -37l219 -218q28 -29 28 -69t-29 -68q-28 -28 -68 -29z" />
    <glyph glyph-name="uniE353" unicode="code" 
d="M1386 565q0 29 -21 50l-295 296q-38 39 -38 93t40 92q38 38 92 38t91 -38l481 -481q20 -21 20 -50t-20 -50l-481 -481q-37 -37 -91 -37q-54 -1 -92 37t-40 92q0 54 38 93l295 296q21 21 21 50zM636 -3q-54 0 -91 37l-481 481q-20 21 -20 50t20 50l481 481q37 38 91 38
t92 -38t40 -92q0 -54 -38 -93l-295 -296q-21 -21 -21 -50t21 -50l295 -296q38 -39 38 -93t-40 -92q-38 -38 -92 -37z" />
    <glyph glyph-name="uniE354" unicode="fullscreen" 
d="M1163 -2q1 26 19 46t44 19h156q44 1 74 31t30 73v155q0 26 19 44t45 19q26 -1 46 -19q18 -18 18 -44v-152q0 -64 -32 -118t-86 -86t-118 -32h-152q-26 0 -44 18q-18 20 -19 46zM253 386q21 0 41 -19t20 -45v-155q0 -60 52 -90q24 -14 52 -14h155q37 0 55 -33q8 -14 8 -36
t-18 -40t-45 -19h-152q-98 0 -167 69t-69 167v151q-1 38 31 56q14 8 37 8zM509 167q-39 1 -65 27t-26 64v782q0 38 26 64t65 27h782q39 -1 65 -27t26 -64v-782q0 -38 -26 -64t-65 -27h-782zM1552 912q-26 0 -46 18t-20 45v156q0 43 -30 73t-74 31h-155q-37 0 -55 32
q-8 15 -8 37t18 40t45 18h152q98 0 167 -69t69 -166v-152q-1 -27 -19 -45t-44 -18zM637 1300q-1 -26 -19 -46t-44 -20h-156q-44 0 -74 -30t-30 -74v-154q0 -26 -19 -44t-45 -19q-26 1 -46 19q-18 18 -18 44v152q0 97 69 166t167 69h152q26 -1 44 -19t19 -44z" />
    <glyph glyph-name="uniE355" unicode="contrast" 
d="M900 1235v-1138q0 -44 33 -74t76 -23q119 19 223 79q104 59 180 147q162 188 163 438q0 250 -160 438q-74 88 -177 148t-221 80q-45 9 -81 -20t-36 -75zM900 1469q163 1 312 -63q148 -64 256 -172t172 -256q64 -149 63 -312q1 -163 -63 -312q-64 -148 -172 -256
t-256 -172q-149 -64 -312 -63q-163 -1 -312 63q-148 64 -256 172t-172 256q-64 149 -63 312q-1 163 63 312q64 148 172 256t256 172q149 64 312 63z" />
    <glyph glyph-name="uniE356" unicode="coverflow" 
d="M541 1030h726q35 0 46 -21q12 -21 12 -37v-726q0 -33 -21 -46q-21 -12 -37 -12h-726q-24 0 -41 17t-17 41v726q0 24 17 41t41 17zM1476 1080q24 0 41 -16t18 -41v-828q-1 -23 -17 -39t-40 -18h-3q-25 1 -41 18t-16 40v826q0 24 17 41t41 17zM332 1080q24 0 41 -17t17 -41
v-826q0 -23 -16 -40t-41 -18h-3q-33 0 -45 22t-12 36v826q0 24 17 41q18 17 42 17zM1689 1218q19 0 37 -17t18 -41v-1101q0 -24 -16 -41t-41 -18h-3q-24 1 -40 18t-17 41v1101q0 58 62 58zM119 1218q19 0 41 -12t22 -46v-1101q0 -24 -17 -41t-40 -18h-3q-24 1 -40 18t-17 41
v1101q0 24 17 41t37 17z" />
    <glyph glyph-name="uniE357" unicode="&#x7a;oom&#x2d;out&#x2d;solid" 
d="M970 839v44q0 17 -11 24q-11 6 -19 6h-407q-13 -1 -21 -9t-8 -21v-44q0 -13 8 -21t21 -9h407q12 1 21 9t9 21zM1261 495l331 -300q40 -35 46 -89t-28 -99q-36 -45 -98 -48t-102 41l-311 335q-19 21 -47 25t-51 -7q-161 -84 -345 -60t-320 156q-137 132 -167 316
q-41 243 111 447q87 117 231 179t325 35q181 -28 313 -166q131 -138 155 -321q24 -184 -60 -344q-12 -25 -8 -53t25 -47z" />
    <glyph glyph-name="uniE358" unicode="&#x7a;oom&#x2d;in&#x2d;solid" 
d="M788 787q0 23 23 23h122q13 0 23 10t10 24v38q0 14 -10 24t-23 10h-122q-23 0 -23 23v121q0 14 -10 24t-24 10h-38q-14 0 -24 -10t-9 -24v-121q0 -23 -24 -23h-121q-14 0 -24 -10t-10 -24v-38q0 -14 10 -24t24 -10h121q24 0 24 -23v-121q-1 -14 9 -24t24 -10h38
q14 0 24 10t10 24v121zM1261 495l331 -300q40 -35 46 -89t-28 -99q-36 -45 -98 -48t-102 41l-311 335q-19 21 -47 25t-51 -7q-161 -84 -345 -60t-320 156q-137 132 -167 316q-41 243 111 447q87 117 231 179t325 35q181 -28 313 -166q131 -138 155 -321q24 -184 -60 -344
q-12 -25 -8 -53t25 -47z" />
    <glyph glyph-name="uniE361" unicode="info" 
d="M732 -10q-36 0 -58 24q-24 24 -27 70q-5 80 57 332q62 251 62 256q1 37 -149 -43q-15 -8 -32 -2t-27 29t15 42q216 161 402 212q115 30 119 -95q2 -65 -64 -310q-66 -246 -66 -263q0 -66 147 26q30 21 52 -9q21 -30 -5 -53q-88 -77 -184 -133q-96 -55 -151 -69t-91 -14z
M1183 1283q1 -59 -31 -101q-62 -83 -160 -84q-63 0 -102 36t-39 102q1 66 53 124q52 57 123 57t113 -38q43 -37 43 -96z" />
    <glyph glyph-name="uniE362" unicode="info&#x2d;circle" 
d="M1073 372q17 17 2 36q-14 19 -33 5q-97 -61 -97 -16q1 3 2 11q2 14 43 167q41 152 41 197q-2 82 -78 62q-122 -33 -263 -139q-18 -13 -7 -35t35 -10q99 52 98 27q0 -4 -41 -167t-38 -202q5 -63 33 -72t74 1q102 24 229 135zM966 957q43 0 83 33q40 34 40 72q0 65 -33 84
q-33 20 -74 20q-42 0 -76 -38t-34 -80q0 -44 26 -68t68 -23zM900 1462q156 0 298 -61t246 -164q103 -103 164 -245t61 -299t-61 -299t-164 -245q-104 -103 -246 -164t-298 -61t-298 61t-246 164q-103 103 -164 245t-61 299t61 299t164 245q104 103 246 164t298 61z" />
    <glyph glyph-name="uniE363" unicode="outbox" 
d="M1565 0h-1332q-43 0 -75 28t-40 68l-38 219q-16 89 43 158l242 283q20 24 51 24h77q16 0 26 -12l31 -36q8 -10 3 -22t-18 -11h-50q-26 0 -41 -22l-156 -221q-9 -14 -1 -30t25 -15h206q32 1 56 -19t33 -50l27 -116q6 -24 24 -38t43 -15h397q53 0 67 52l28 117q9 31 33 50
t55 19h207q17 -1 25 15t-2 30l-156 222q-15 21 -42 21h-47q-12 0 -18 11t2 21l26 35q11 14 28 14h82q31 0 51 -24l240 -283q60 -70 43 -159l-41 -219q-7 -41 -39 -68t-75 -27zM672 902h-132q-28 0 -40 25t7 46l348 418q18 21 45 21t45 -21l348 -418q19 -21 7 -46t-40 -25
h-134q-24 0 -42 -17t-17 -42v-321q-1 -26 -19 -44t-44 -19h-210q-26 1 -44 19t-19 44v321q0 25 -17 42t-42 17z" />
    <glyph glyph-name="uniE364" unicode="inbox" 
d="M1565 0h-1332q-57 0 -93 47q-16 22 -22 49l-38 219q-16 89 43 158l242 283q20 24 51 24h77q16 0 26 -12l31 -36q8 -10 3 -22t-18 -11h-50q-26 0 -41 -22l-155 -221q-10 -14 -2 -30t25 -15h206q32 1 56 -19t33 -50l27 -116q6 -24 24 -38t43 -15h397q24 1 42 15t25 37
l28 117q9 31 33 50t56 19h206q17 -1 25 15t-2 30l-156 222q-15 21 -42 21h-47q-12 0 -18 11t2 21l26 35q11 14 28 14h82q31 0 51 -24l240 -283q60 -70 43 -159l-41 -219q-7 -41 -39 -68t-75 -27zM1128 969h132q28 0 40 -25t-7 -46l-348 -418q-18 -21 -45 -21t-45 21
l-348 418q-19 21 -7 46t40 25h134q24 0 42 17t17 42v321q1 27 19 45t44 18h210q26 0 44 -18t19 -45v-321q0 -24 17 -42t42 -17z" />
    <glyph glyph-name="uniE365" unicode="download" 
d="M1397 140q29 0 42 26q4 8 5 18l11 137q3 29 -17 50t-48 21h-961q-27 0 -47 -21t-18 -50l11 -137q3 -44 47 -44h975zM1117 1145h128q43 1 79 -25t50 -68l193 -568q18 -56 10 -114l-37 -268q-6 -44 -46 -64q-19 -10 -40 -10h-1090q-33 0 -57 21t-29 53l-37 269
q-8 57 11 112l192 569q14 42 50 68t78 25h130q37 -1 63 -27t26 -62v-107q0 -17 -12 -29t-30 -13h-94q-20 1 -28 -17t4 -33l246 -294q11 -15 31 -15t33 15l245 294q12 15 4 33t-27 17h-93q-18 1 -30 13t-12 29v107q0 36 26 62t63 27z" />
    <glyph glyph-name="uniE366" unicode="compose" 
d="M588 313q-18 -7 -32 7t-8 33l85 247q5 13 18 16t23 -7l170 -170q10 -10 7 -23t-16 -18zM902 473q-18 0 -31 12l-159 159q-12 12 -12 30t13 31l565 565q13 13 31 13t31 -12l158 -159q12 -12 12 -30t-13 -31l-565 -565q-12 -13 -30 -13zM1057 1286q-1 -26 -19 -44t-44 -19
h-636q-22 1 -38 -15t-15 -38v-1045q-1 -22 15 -37t38 -15h1044q22 0 38 15t15 37v637q1 28 19 46t40 18t36 -8q32 -19 33 -56v-717q0 -56 -48 -84q-22 -13 -49 -13h-1209q-41 0 -69 28t-28 69v1209q0 40 28 68t69 29h717q26 1 44 -19t19 -46zM1573 1129q-18 0 -31 13
l-165 165q-12 13 -12 31t12 31l94 93q22 23 54 23t55 -23l117 -117q23 -23 23 -55t-23 -54l-93 -94q-13 -13 -31 -13z" />
    <glyph glyph-name="uniE367" unicode="layout" 
d="M884 260q-40 0 -68 28t-28 68v407q0 39 28 67t68 29h382q40 -1 68 -29t28 -67v-407q0 -40 -28 -68t-68 -28h-382zM584 859q40 -1 68 -29t29 -67v-407q-1 -40 -29 -68t-68 -28h-57q-40 0 -68 28t-28 68v407q0 39 28 67t68 29h57zM527 968q-40 0 -68 28t-28 68v49
q0 40 28 68t68 28h739q40 0 68 -28t28 -68v-49q0 -55 -48 -83q-22 -13 -48 -13h-739zM331 101h1139q19 -1 33 13t14 34v1139q0 19 -14 33t-33 13h-1139q-19 1 -33 -13t-14 -33v-1139q0 -20 14 -34t33 -13zM156 69v1298q0 39 28 67t67 28h1298q39 0 67 -28t28 -67v-1298
q0 -39 -28 -67t-67 -28h-1298q-39 0 -67 28t-28 67z" />
    <glyph glyph-name="uniE368" unicode="link" 
d="M646 549q-8 0 -14 -5l-216 -216q-29 -28 -29 -70t35 -78q34 -36 76 -35q42 0 71 30l216 215q13 14 1 26t-28 5q-16 -9 -40 -5t-40 20q-37 37 -14 84q6 13 -2 21t-16 8zM1154 768q8 0 15 6l215 215q29 29 29 71t-35 77q-34 35 -76 35t-71 -29l-216 -216q-6 -7 -6 -15
q1 -8 9 -16t24 0t40 4t40 -20q36 -36 13 -82q-5 -14 3 -22t16 -8zM498 0q-100 0 -170 70l-17 17q-70 70 -70 169t70 170l210 209q50 49 120 63t132 -13q33 -15 61 13l27 27q28 28 13 60q-27 63 -14 133t64 120l209 209q69 70 169 70t170 -70l17 -16q70 -69 70 -169t-70 -170
l-210 -209q-50 -51 -120 -64t-133 14q-33 13 -61 -13l-26 -27q-28 -28 -13 -61q27 -62 14 -132t-64 -121l-209 -209q-69 -70 -169 -70z" />
    <glyph glyph-name="uniE371" unicode="windows" 
d="M816 156v389q0 19 14 33t33 13h554q19 1 33 -13t13 -33v-499q0 -22 -17 -36t-39 -10l-553 110q-16 3 -27 16t-11 30zM343 591h357q18 1 32 -13t14 -33v-357q0 -22 -17 -36t-39 -10l-356 71q-37 5 -37 46v286q-1 19 13 33t33 13zM746 1067v-359q0 -19 -14 -33t-32 -14
h-357q-19 0 -33 14t-13 33v288q1 17 11 30t26 16l356 71q36 7 52 -25q4 -10 4 -21zM1417 661h-554q-19 0 -33 14t-14 33v391q0 23 14 34q14 10 24 12l553 110q22 4 39 -10t17 -36v-501q1 -19 -13 -33t-33 -14z" />
    <glyph glyph-name="uniE372" unicode="flash&#x2d;drive" 
d="M480 167q22 0 39 16q16 17 16 39t-16 38q-17 16 -39 15q-22 1 -38 -15t-16 -38t16 -39q16 -16 38 -16zM1412 988q0 16 -11 26t-26 11q-15 0 -26 -11l-37 -37q-11 -11 -11 -25t11 -25q10 -13 26 -13t27 11l37 37q10 10 10 26zM869 1049q15 0 26 -11l403 -403
q11 -11 11 -26t-11 -26l-490 -490q-93 -93 -225 -93q-131 0 -227 96t-96 227q0 132 93 226l490 489q11 11 26 11zM1286 1114q0 16 -11 27t-27 11t-25 -11l-37 -37q-11 -11 -11 -26q1 -15 11 -26t26 -11t26 10l37 37q11 10 11 26zM1540 1026q0 -24 -16 -40l-204 -204
q-10 -9 -24 -9t-23 9l-231 231q-10 10 -10 24t10 23l204 204q16 16 40 16t40 -16l198 -198q16 -16 16 -40z" />
    <glyph glyph-name="uniE373" unicode="location" 
d="M900 627q106 0 181 75t75 181t-75 181t-181 75t-181 -75t-75 -181t75 -181t181 -75zM900 1443q112 -1 216 -45t178 -118t119 -178q44 -102 44 -210q1 -108 -33 -220t-86 -206q-110 -199 -245 -333q-135 -133 -188 -133t-161 102q-189 178 -295 393t-106 390q0 114 44 217
q45 104 119 178t178 118t216 45z" />
    <glyph glyph-name="uniE374" unicode="bus" 
d="M1352 286q32 0 54 22t22 54t-22 54t-54 22t-54 -22t-23 -54q1 -32 23 -54t54 -22zM486 286q32 0 54 22t22 54t-22 54t-54 22t-54 -22t-22 -54t22 -54t54 -22zM476 627h887q31 0 52 23t18 54l-39 416q-4 28 -24 47t-49 19h-804q-38 0 -54 -24t-18 -42l-39 -416
q-4 -42 32 -66q16 -10 38 -11zM1250 1349h-661q-16 0 -27 -11q-11 -12 -11 -24q0 -39 38 -39h661q16 0 26 11t11 26q-1 15 -11 26t-26 11zM486 -46q-101 0 -101 58v53q-1 37 -43 45q-20 4 -37 24t-17 44v487q16 240 75 659q6 42 38 70t77 35q218 33 442 33t440 -33
q62 -7 96 -55q16 -22 25 -86q51 -361 69 -623v-487q0 -24 -16 -44t-38 -24q-42 -7 -42 -45v-53q0 -58 -108 -58h-21q-104 0 -104 58v56q0 17 -12 29t-29 12h-521q-17 0 -29 -12t-12 -29v-56q0 -58 -108 -58h-24z" />
    <glyph glyph-name="uniE375" unicode="train" 
d="M503 -86h796q9 0 14 8t1 15l-14 29q-9 22 -34 22h-729q-25 0 -35 -22l-14 -29q-2 -7 2 -15t13 -8zM903 124q-115 0 -310 8q-16 1 -23 -14l-12 -27q-5 -10 1 -20t18 -10h649q12 0 18 10t1 20l-12 27q-7 14 -22 14q-193 -8 -308 -8zM1308 317q30 0 50 21q21 21 21 51
t-21 51q-20 21 -50 21t-52 -21t-21 -51q-1 -30 21 -51t52 -21zM419 389q-1 -30 21 -51t52 -21t50 21q22 21 22 51t-22 51t-50 21q-30 0 -52 -21t-21 -51zM482 639h836q30 -1 50 21t16 52l-37 392q-1 26 -21 44t-47 18h-758q-35 0 -51 -22q-15 -22 -17 -40l-37 -392
q-4 -30 16 -52t50 -21zM1495 207q0 -33 -20 -47t-35 -17l-93 -5q-11 0 -17 -10t0 -18l68 -146q23 -49 -6 -94t-82 -45h-818q-53 0 -82 45t-6 94l68 146q6 8 0 18t-17 10l-95 5q-23 4 -39 22t-16 42v468q13 169 41 358q29 188 29 191q6 39 36 66t73 34q205 31 416 31t416 -31
q43 -7 73 -34t36 -66q-1 -3 11 -78q45 -297 59 -471v-468zM900 1399q-105 0 -212 -8q-25 -2 -25 22q-1 14 21 28t41 16q85 5 175 5t175 -5q19 -2 41 -16t21 -28q0 -24 -25 -22q-107 8 -212 8z" />
    <glyph glyph-name="uniE376" unicode="gas" 
d="M671 571h289q19 -1 32 13t13 32v76q0 19 -13 32t-32 13h-289q-19 0 -32 -13t-13 -32v-76q0 -18 13 -32t32 -13zM1479 320v644q0 27 -36 40q-8 2 -35 10q-28 8 -44 34t-15 44t5 36t10 37q6 20 6 24q10 41 -20 52t-60 15t-30 -26v-430q0 -19 19 -24q63 -12 97 -54t33 -104
v-298q0 -17 10 -29t28 -12q32 0 32 41zM531 828h569q18 0 32 13t14 32v429q0 19 -14 32t-32 13h-569q-19 0 -33 -13t-13 -32v-429q-1 -19 13 -32t33 -13zM1260 661v-565q0 -20 19 -24q41 -10 41 -49q0 -21 -16 -35t-37 -14h-903q-27 0 -39 18q-13 18 -13 32q-1 38 40 49
q19 4 19 23v1270q0 40 28 68t68 28h697q40 0 68 -28t28 -68v-18q0 -23 23 -25q191 -25 255 -197q11 -30 14 -47q3 -18 9 -32t6 -20v-695q0 -67 -34 -104q-33 -37 -85 -37t-90 38t-38 103v286q0 49 -27 63q-11 5 -22 -1t-11 -19z" />
    <glyph glyph-name="uniE377" unicode="dashboard" 
d="M1054 244q0 76 -58 123q-34 27 -34 67v259q0 43 -39 59q-12 5 -32 5t-39 -19t-19 -45v-259q-1 -40 -35 -68t-49 -73t-5 -79q29 -97 108 -118q80 -21 141 26q61 46 61 122zM446 850q30 0 50 21q21 21 21 50t-21 50t-45 21q-25 0 -41 -10q-36 -20 -35 -55t21 -56t50 -21z
M1351 850q29 0 50 21t21 45t-10 40q-20 36 -55 36t-56 -21t-21 -50t21 -50t50 -21zM1158 1042q30 0 50 20t21 50q-1 30 -21 50t-44 21t-42 -9q-36 -20 -35 -56q0 -36 21 -56q20 -20 50 -20zM636 1042q30 0 50 20t21 50q-1 30 -21 50t-50 21q-30 -1 -50 -21t-20 -50t20 -50
t50 -20zM898 1254q-29 0 -50 -20t-21 -50t21 -50t50 -21q29 1 50 21t21 50t-21 50t-50 20zM900 1462q164 0 312 -64t255 -170q107 -108 171 -256t63 -284q0 -136 -29 -240q-28 -104 -80 -192q-106 -181 -290 -288q-183 -108 -402 -108q-164 0 -312 64t-255 170
q-107 108 -171 256t-63 311q-1 163 63 311t171 256q107 106 255 170t312 64z" />
    <glyph glyph-name="uniE378" unicode="dashboard&#x2d;alt" 
d="M1054 244q0 76 -58 123q-34 27 -34 67v259q0 43 -39 59q-11 5 -27 5q-16 -1 -30 -9q-32 -19 -33 -55v-259q-1 -40 -35 -68t-49 -73q-25 -75 14 -129t104 -72q65 -17 126 30q61 46 61 122zM892 1225q-97 0 -190 -34q-186 -68 -289 -235q-7 -11 3 -18t18 2q74 88 179 138
t207 50q276 0 437 -208q12 -16 29 -6l64 38q9 5 11 15t-4 18q-105 150 -281 210q-88 30 -184 30zM900 1462q164 0 312 -64t255 -170q107 -108 171 -256t63 -284q0 -136 -29 -240q-28 -104 -80 -192q-106 -181 -290 -288q-183 -108 -402 -108q-164 0 -312 64t-255 170
q-107 108 -171 256t-63 311q-1 163 63 311t171 256q107 106 255 170t312 64z" />
    <glyph glyph-name="uniE381" unicode="flag" 
d="M268 1332q22 6 46 -6t31 -39l375 -1206q6 -25 -6 -49t-38 -32t-48 5q-24 13 -32 38l-375 1207q-8 36 9 56q16 20 38 26zM426 1221q-29 99 87 139q174 60 410 -63q217 -125 359 -95q28 6 50 14q70 18 86 -38q0 -1 158 -513q21 -80 -30 -116q-63 -42 -174 -36
q-112 6 -260 93q-148 86 -308 65q-43 -6 -96 -29q-90 -41 -114 33q-2 5 -168 546z" />
    <glyph glyph-name="uniE382" unicode="flag&#x2d;alt" 
d="M314 1330q26 8 48 -4q24 -12 32 -39l375 -1206q8 -25 -5 -49q-12 -24 -38 -32t-50 5t-31 38l-375 1207q-6 24 6 48t38 32zM567 1371q265 113 475 -112q166 -169 364 -109q58 18 70 30q20 10 40 -8t16 -45q-42 -222 -162 -335q-119 -113 -260 -85q-141 27 -217 21
t-167 -56q-31 -16 -59 -1t-38 45t-80 263q-70 232 -76 252q-28 93 94 140z" />
    <glyph glyph-name="uniE383" unicode="plane" 
d="M490 213q-28 -5 -40 7t-6 39q4 27 24 46q18 19 16 37t-19 22l-168 38q-13 2 -15 16t5 20l39 39q12 12 28 13l229 2q21 0 30 9l26 26q17 17 39 40l44 46t40 41l21 21q19 19 10 35t-26 21l-536 173q-39 12 -33 48q2 14 12 23l17 17q13 13 31 13l794 1q51 0 84 33l58 61
q58 62 106 108q46 46 86 62t65 11q25 -3 41 -19t20 -42t-12 -65q-16 -41 -62 -87t-108 -104q-60 -58 -60 -59q-33 -32 -33 -84l-2 -794q1 -17 -11 -29l-18 -18q-22 -22 -44 -10q-21 12 -27 30l-173 536q-12 34 -38 27q-10 -3 -18 -11t-85 -82q-78 -76 -88 -86t-11 -32
l-2 -229q0 -15 -12 -27l-39 -39q-7 -7 -20 -5t-16 15l-39 168q-4 18 -22 19q-18 0 -36 -18t-46 -23z" />
    <glyph glyph-name="uniE384" unicode="compass" 
d="M902 598q20 0 34 16q14 15 13 35t-15 34t-36 13q-20 -1 -34 -16t-12 -35q2 -19 16 -33t34 -14zM836 752l305 178q21 11 37 -5t4 -36l-179 -308q-14 -26 -39 -40l-306 -178q-20 -11 -36 5t-5 36l179 309q15 25 40 39zM1300 381q65 105 77 219t-25 212t-113 175
q-75 76 -175 112t-214 24t-217 -77q-18 -12 -23 -35q-6 -23 6 -44t-2 -35t-34 -2q-21 12 -44 7t-35 -23q-62 -93 -77 -202q-15 -110 20 -216t117 -188q81 -82 189 -118q108 -35 216 -19t201 77q18 12 23 35t-7 44t2 35t35 2t44 -7t36 24zM1370 1091q88 -89 138 -221t38 -276
t-75 -252t-138 -176t-161 -106q-86 -40 -184 -54t-192 2q-94 15 -186 61t-167 121t-121 167t-61 186q-31 195 53 377t269 291q186 108 404 77q217 -31 383 -197z" />
    <glyph glyph-name="uniE385" unicode="clock" 
d="M900 961q22 0 38 -16t16 -39v-176q2 -26 27 -28h256q21 -1 36 -17t15 -32q0 -26 -14 -42q-14 -15 -35 -17h-366q-26 2 -28 29v285q1 22 17 38t38 15zM1379 648q1 98 -37 186q-38 89 -102 153t-154 102q-88 38 -186 38t-186 -38t-154 -102q-64 -64 -102 -153
q-38 -88 -38 -186t38 -187t102 -153t154 -102q88 -38 186 -38t186 38q90 38 154 102t102 153t37 187zM900 1295q132 1 252 -51t206 -138q87 -86 138 -207q51 -119 51 -251t-51 -252t-138 -206q-86 -86 -206 -138t-252 -52t-252 52t-206 138q-87 86 -138 206t-51 252t51 251
q51 121 138 207q86 86 206 138t252 51z" />
    <glyph glyph-name="uniE386" unicode="watch" 
d="M853 704v246q1 29 29 42q8 4 22 4t29 -14q14 -14 14 -33v-152q0 -20 23 -24h220q18 -1 30 -15t13 -32q0 -18 -12 -31t-29 -15h-315q-24 2 -24 24zM899 310q115 0 212 56t153 154t56 212t-56 212t-154 153q-98 56 -212 56q-114 -1 -212 -57t-153 -153q-56 -97 -56 -212
q-1 -173 123 -297t299 -124zM557 1206v249q3 53 49 77q22 12 47 12h492q36 0 63 -24t32 -58v-256q0 -49 33 -85t56 -65q110 -139 110 -329q0 -105 -44 -207t-122 -177q-33 -37 -33 -86v-204q-1 -39 -29 -67t-67 -28h-491q-37 0 -65 26t-31 64v209q0 51 -36 88
q-126 149 -151 269q-11 54 -11 139q1 85 41 184t120 179q37 38 37 90z" />
    <glyph glyph-name="uniE387" unicode="alarm&#x2d;clock" 
d="M904 875q16 -1 30 -15t15 -34v-160q0 -11 8 -19t19 -8h228q20 -1 34 -15t15 -34q-1 -20 -15 -34t-34 -15h-325q-13 1 -21 9t-8 20l1 256q1 49 53 49zM463 589q-1 -181 127 -309t310 -128q218 0 352 179q84 113 85 258q1 181 -127 309t-310 128t-310 -128t-127 -309z
M900 0q-164 0 -305 86q-19 10 -39 5t-32 -23l-52 -82q-12 -18 -32 -22t-38 7t-22 31t7 38l68 106q21 32 -5 63q-139 166 -139 379q0 212 130 371q207 251 541 214q120 -13 234 -87t186 -188q72 -115 84 -244q25 -255 -136 -445q-26 -30 -6 -64l68 -105q11 -18 7 -38
q-3 -20 -21 -31t-38 -7t-32 22l-53 82q-11 18 -32 23t-39 -6q-140 -85 -304 -85zM950 1286q0 -20 -14 -36q-14 -15 -36 -15t-36 15q-14 16 -14 36t14 35t36 15t36 -15t14 -35zM1496 1064q-13 -20 -36 -23t-40 13q-66 66 -122 106t-143 79q-22 9 -27 33t11 43q37 47 95 69
t122 8t110 -61q46 -48 60 -122t-30 -145zM304 1064q-44 71 -30 145t60 122q46 47 110 61t122 -8t95 -69q16 -19 11 -43t-27 -33q-87 -39 -143 -79t-122 -106q-17 -16 -40 -13t-36 23z" />
    <glyph glyph-name="uniE388" unicode="megaphone" 
d="M1332 1023q26 -1 49 -45q22 -44 22 -96t-10 -87q-22 -76 -66 -76q-32 1 -54 45t-22 96t10 87q9 35 27 55t44 21zM1356 528q46 0 86 46t63 125t23 172t-23 172t-63 125t-86 46t-86 -46t-63 -125t-23 -172t23 -172t63 -125t86 -46zM565 -1q-40 0 -67 29q-27 28 -23 54
t80 389q11 53 -21 96t-87 48q-95 9 -161 85t-66 155t32 137t90 96q58 37 126 37h217q189 -1 387 63q86 28 140 56q97 51 159 51q63 0 141 -80t98 -278q4 -38 4 -68q0 -63 -21 -173t-90 -182q-70 -72 -132 -71t-162 54q-100 52 -270 88q-47 9 -87 -17t-51 -73
q-27 -133 -34 -171t5 -94q12 -58 36 -98q22 -40 12 -70t-40 -49t-58 -13l-106 -1h-51z" />
    <glyph glyph-name="uniE411" unicode="locked&#x2d;alt" 
d="M993 496q0 46 -30 74t-63 28q-32 -2 -54 -15q-44 -27 -46 -80q-1 -53 42 -82q17 -12 17 -33v-99q-1 -15 9 -27t26 -12q16 -2 28 10t12 27v101q0 22 17 33q42 29 42 75zM1167 883v109q0 120 -80 205q-81 85 -193 85t-192 -85t-79 -205v-109q1 -20 15 -35t35 -15h444
q20 0 35 15t15 35zM414 833q59 0 59 50v89q0 109 32 179q33 69 61 109q54 77 141 126q87 48 172 48t149 -24q124 -45 207 -165q82 -120 82 -273v-89q0 -50 52 -50q53 -1 71 -41q6 -12 5 -26v-699q1 -39 -33 -58q-16 -9 -34 -9h-964q-28 0 -48 20t-19 47v699q-1 28 19 48
t48 19z" />
    <glyph glyph-name="uniE412" unicode="unlocked&#x2d;alt" 
d="M997 496q0 46 -30 74q-29 28 -69 27t-67 -29t-27 -73t42 -74q17 -12 17 -33v-99q-1 -15 9 -27t22 -12q21 -2 32 10q12 12 12 27v101q0 22 17 33q42 29 42 75zM585 961h-63q-18 -1 -32 13t-12 33q14 195 133 311t288 116q115 0 212 -62t153 -168t57 -232v-89q0 -49 58 -50
q29 0 49 -19t21 -48v-699q1 -27 -19 -47t-48 -20h-964q-28 0 -48 20t-19 47v699q-1 39 33 58q16 9 34 9h703q20 0 35 15t15 35v109q0 120 -80 205q-79 85 -189 85t-186 -75t-87 -204q-2 -23 -17 -33q-15 -9 -27 -9z" />
    <glyph glyph-name="uniE413" unicode="unlocked" 
d="M1398 699v-592q0 -45 -31 -76t-76 -31h-782q-45 0 -76 31t-31 76v592q0 45 31 76t76 31h526q21 0 37 16t16 37v234q0 81 -58 137t-138 51q-78 -5 -130 -63t-51 -136v-83q-1 -21 -15 -35t-35 -15h-77q-22 1 -36 15t-14 35v91q0 194 165 306q102 70 215 59t189 -65
t118 -138t42 -178v-217q1 -46 53 -53q28 -4 55 -34t27 -71z" />
    <glyph glyph-name="uniE414" unicode="locked" 
d="M696 1068v-155q0 -21 14 -35t36 -15h305q28 0 38 18q11 18 11 32v144q0 83 -55 146t-139 67t-147 -56t-63 -146zM1433 750v-636q0 -46 -33 -80t-81 -34h-838q-48 0 -81 34t-33 80v636q1 59 49 93q22 16 45 19q48 6 48 46v156q0 108 54 199t147 143q92 52 186 49
q175 -6 285 -126q109 -120 109 -281v-140q0 -40 55 -48q30 -4 59 -36t29 -74z" />
    <glyph glyph-name="uniE415" unicode="key" 
d="M1178 743q54 0 92 38q38 37 38 91t-38 92t-92 38t-91 -38q-38 -38 -38 -92t38 -91q37 -38 91 -38zM783 315h-26q-16 0 -27 -11t-11 -27v-26q0 -21 -18 -39t-38 -17h-23q-19 0 -32 -13l-58 -58q-13 -13 -13 -31l-1 -24q0 -21 -14 -36l-34 -33q-38 -38 -93 -38t-91 40
t-34 92t39 90l347 348q83 81 60 189q-22 108 7 208q46 161 193 243q96 54 206 53q172 0 293 -125q75 -77 102 -180q27 -102 2 -206t-99 -184t-176 -110q-102 -32 -214 -10q-110 22 -212 -80q-15 -15 -35 -15z" />
    <glyph glyph-name="uniE416" unicode="cube&#x2d;open" 
d="M1671 1019v-698q0 -58 -51 -88l-593 -342q-21 -12 -41 0t-21 35v693q0 52 45 78l492 280q17 10 17 31t-18 31l-154 87l116 68l151 -81q57 -30 57 -94zM838 619v-695q0 -23 -20 -35t-41 0l-595 343q-53 30 -53 91v677q0 64 32 120t87 86l588 340q45 26 95 13l620 -163
q23 -6 27 -32t-18 -38l-602 -341q-45 -26 -94 -13l-515 134q-34 8 -54 -8t-27 -32v-1q-10 -25 -2 -49t31 -37l498 -284q43 -26 43 -76z" />
    <glyph glyph-name="uniE417" unicode="cube" 
d="M836 599v-671q0 -19 -12 -33q-24 -29 -64 -11l-580 336q-51 28 -51 86v671q-1 29 25 44t51 0l581 -335q50 -30 50 -87zM964 -72v675q0 58 50 86l581 336q25 13 51 -1t25 -43v-675q0 -58 -51 -86l-580 -336q-24 -14 -50 0t-26 44zM897 785q-27 0 -50 13l-574 332
q-25 14 -25 44t25 43l577 336q23 14 50 14t50 -13l579 -332q25 -14 25 -44t-25 -44l-582 -336q-23 -13 -50 -13z" />
    <glyph glyph-name="uniE418" unicode="mailbox" 
d="M1179 337v88q0 37 27 65t66 28h186q20 0 32 17t5 36l-221 600q-11 29 -42 29h-663q-32 0 -41 -29l-223 -599q-8 -29 8 -42q16 -12 30 -12h184q39 0 66 -28t27 -65v-88q0 -37 28 -65t65 -28h372q61 0 87 57q8 17 7 36zM1655 -11q-1 -40 -29 -68t-68 -28h-1316
q-40 0 -68 28t-29 68v518l4 21l271 732q10 30 36 48t58 18h772q32 0 58 -18t36 -48l271 -732l4 -21v-518z" />
    <glyph glyph-name="uniE421" unicode="file&#x2d;drawer" 
d="M1215 528q-1 69 -57 69t-56 -65q0 -28 -20 -48t-47 -19h-280q-27 -1 -47 19t-19 48q0 65 -56 65t-56 -69q0 -70 53 -122t127 -52h277q75 0 128 52t53 122zM1439 0h-1086q-26 0 -45 18t-21 44l-51 667q-3 33 13 63l95 181q9 15 27 11t18 -22l1 -177q0 -11 7 -17t16 -6h965
q22 0 24 23l1 177q0 18 17 23q19 4 27 -12l96 -181q15 -30 13 -63l-51 -667q-2 -26 -21 -44t-45 -18zM1334 836h-877v156q0 20 15 34t35 15h777q22 -1 36 -15t14 -34v-156zM1285 1114h-779v64q0 18 13 31t31 13h691q18 0 31 -13t13 -31v-64z" />
    <glyph glyph-name="uniE422" unicode="folder&#x2d;flat" 
d="M1505 969q57 1 83 -55q8 -16 7 -35v-753q-1 -38 -27 -64t-63 -26h-1224q-37 0 -63 26t-26 64v968q0 37 26 63t63 26h514q60 0 86 -54l53 -106q26 -54 86 -54h485z" />
    <glyph glyph-name="uniE423" unicode="folder" 
d="M1496 0h-1153q-15 0 -21 14t6 25q62 54 62 138v532q0 19 13 31t31 12h1188q18 0 30 -12t13 -31v-539q1 -70 -49 -120t-120 -50zM1405 1017q52 0 78 -45q12 -21 12 -45v-44q-1 -19 -13 -31t-30 -12h-1054q-38 0 -66 -28t-27 -66v-576q-1 -35 -25 -60t-59 -25h-2
q-35 0 -59 25t-25 60v976q1 36 25 60t59 24h522q59 0 85 -55l47 -103q24 -55 84 -55h448z" />
    <glyph glyph-name="uniE424" unicode="folder&#x2d;plus" 
d="M1512 87q17 0 17 -16v-38q0 -29 26 -31q13 -2 23 7t10 22v40q0 6 5 11t11 5h40q13 -1 22 9t8 20q-3 31 -32 31h-38q-16 0 -16 16v38q0 29 -27 31q-13 1 -23 -8t-9 -22v-39q0 -16 -17 -16h-38q-29 -1 -31 -29q-1 -12 8 -22t22 -9h39zM1558 314q82 0 138 -58
q58 -58 58 -138q0 -82 -58 -140t-138 -57q-82 -1 -139 57t-57 140t57 138q57 58 139 58zM1241 0h-889q-14 0 -20 14t5 25q62 54 62 138v532q0 19 13 31t30 12h1189q19 0 31 -12t12 -31v-275q0 -22 -17 -34t-38 -8q-123 30 -227 -46q-75 -55 -101 -135t-8 -155q5 -22 -7 -39
t-35 -17zM1413 1017q39 -1 65 -27t26 -63v-44q0 -19 -13 -31t-31 -12h-1053q-37 0 -65 -28t-28 -66v-576q0 -35 -25 -60t-60 -25h-1q-35 0 -60 25t-25 60v976q0 36 25 60t60 24h522q61 0 84 -55l47 -103q26 -55 85 -55h447z" />
    <glyph glyph-name="uniE425" unicode="folder&#x2d;minus" 
d="M1474 88h170q14 0 22 8t8 22q0 12 -8 21t-22 9h-170q-12 0 -21 -9t-9 -21t9 -22q9 -8 21 -8zM1558 314q82 0 138 -58q58 -58 58 -138q0 -82 -58 -140t-138 -57q-82 -1 -139 57t-57 140t57 138q57 58 139 58zM1241 0h-889q-14 0 -20 14t5 25q62 54 62 138v532q0 19 13 31
t30 12h1189q19 0 31 -12t12 -31v-275q0 -22 -17 -34t-38 -8q-123 30 -227 -46q-75 -55 -101 -135t-8 -155q5 -22 -7 -39t-35 -17zM1413 1017q39 -1 65 -27t26 -63v-44q0 -19 -13 -31t-31 -12h-1053q-37 0 -65 -28t-28 -66v-576q0 -35 -25 -60t-60 -25h-1q-35 0 -60 25
t-25 60v976q0 36 25 60t60 24h522q61 0 84 -55l47 -103q26 -55 85 -55h447z" />
    <glyph glyph-name="uniE426" unicode="attach" 
d="M1212 811q0 29 -22 51t-51 22q-30 0 -51 -21l-548 -548q-22 -21 -52 -21t-52 22t-22 52t21 52l548 548q64 64 155 64t155 -64q63 -64 65 -157q2 -92 -62 -156l-655 -655q-67 -68 -158 -90t-182 3t-158 92t-91 157t0 180t91 157l811 807q62 62 145 84t166 0t145 -84
l222 -222q62 -62 84 -146t0 -166q-22 -83 -84 -145l-702 -702q-21 -21 -52 -21q-30 0 -52 22t-22 52t21 52l703 702q51 52 51 124t-51 124l-221 221q-51 51 -124 51t-124 -51l-810 -810q-59 -59 -59 -143t59 -142t143 -60t143 58l656 655q21 22 21 52z" />
    <glyph glyph-name="uniE427" unicode="recycle" 
d="M1107 238h158q65 0 95 55t-1 108l-67 115q-8 16 -4 32t20 25l87 47q15 9 31 4t25 -20l67 -124q63 -115 19 -231q-43 -115 -146 -165q-55 -26 -118 -28l-163 -5q-26 0 -26 -27l1 -51q1 -11 -10 -17t-20 1l-201 161q-10 9 -10 23t10 23l194 167q9 7 20 3t11 -16l1 -54
q0 -10 8 -18t19 -8zM538 249h132q18 -1 30 -13t12 -29l-2 -99q0 -23 -16 -32t-27 -8l-140 3q-161 6 -241 144q-50 87 -36 185q8 50 32 96l77 143q14 23 -10 36l-45 25q-11 6 -10 18t12 16l239 93q13 5 25 -1t15 -21l48 -252q3 -12 -7 -19t-20 -1l-48 26q-23 13 -35 -10
l-79 -137q-32 -50 -2 -107q30 -56 96 -56zM913 1273q70 0 137 -36t108 -102l85 -139q14 -23 37 -9l44 27q16 8 23 -2q6 -10 5 -17l-38 -254q-2 -14 -14 -21t-26 -3l-242 85q-10 3 -12 15t8 18l47 28q21 14 9 36l-79 137q-20 35 -57 48t-74 0t-57 -48l-67 -115
q-8 -15 -25 -19t-32 4l-84 51q-15 9 -19 26t5 32l73 120q41 66 108 102t137 36z" />
    <glyph glyph-name="uniE428" unicode="recycle&#x2d;bin" 
d="M1038 267h-62q-10 0 -10 10l-1 21q0 5 -4 7t-8 -1l-76 -66q-4 -2 -4 -8t5 -10l78 -62q4 -3 8 -1t4 7l-1 20q0 10 10 10l64 2q41 2 71 28q62 54 25 138l-27 48q-8 16 -22 6l-33 -18q-14 -7 -7 -22l26 -45q12 -21 0 -43t-36 -21zM806 272h-52q-25 0 -37 21t0 42l31 54
q5 9 14 4l18 -11q4 -2 8 1t3 7l-19 99q-3 13 -15 8l-94 -36q-5 -3 -5 -7t5 -6l17 -10q9 -5 4 -14l-30 -56q-38 -82 25 -138q30 -26 71 -28l55 -1q16 0 16 16l1 38q0 17 -16 17zM837 534l26 45q18 31 51 19q14 -5 22 -19l31 -54q5 -8 -3 -14l-19 -11q-3 -2 -3 -6t5 -7l94 -33
q13 -3 16 10l15 99q1 4 -3 7t-19 -7q-15 -9 -21 0l-33 54q-20 35 -58 48t-75 0t-58 -48l-29 -47q-8 -13 6 -22l32 -20q14 -7 23 6zM501 881h798q28 -1 47 -21t16 -48l-68 -812q-2 -33 -23 -44t-36 -11h-670q-24 0 -41 16t-19 39l-68 812q-2 28 17 48t47 21zM1363 991h-926
q-31 0 -49 24t-9 54l29 107q10 33 46 40q67 13 157 18q91 5 97 8t10 7q4 5 7 9t4 8q11 40 40 74q13 16 131 16t137 -24t31 -57q11 -34 42 -36q178 -11 225 -21q47 -9 57 -42l29 -107q11 -43 -23 -67q-16 -11 -35 -11z" />
    <glyph glyph-name="uniE431" unicode="envelope" 
d="M1659 895v-694q0 -37 -26 -63t-64 -27h-1338q-38 1 -64 27t-26 63v694q1 28 25 40t46 -5l625 -495q27 -22 62 -22t63 22l626 495q22 17 46 5t25 -40zM1532 1096q31 0 41 -30t-15 -47l-616 -472q-19 -14 -43 -14t-43 14l-614 472q-25 19 -15 48t41 29h1264z" />
    <glyph glyph-name="uniE432" unicode="mail" 
d="M1550 811q0 13 -11 20l-612 413q-28 19 -56 0l-610 -413q-11 -7 -11 -20t11 -20l583 -404q56 -41 115 0l580 404q11 7 11 20zM898 1356q30 0 57 -17l657 -439q47 -31 47 -88v-709q-1 -43 -31 -73t-73 -30h-1310q-43 0 -73 30t-31 73v709q0 57 47 88l654 439q26 17 56 17z
" />
    <glyph glyph-name="uniE433" unicode="mail&#x2d;down" 
d="M896 1035q22 1 44 -13q21 -14 21 -54v-182q0 -16 11 -28t27 -11h106q25 1 35 -23t-8 -42l-190 -129q-17 -17 -41 -17t-41 17l-190 129q-18 18 -8 42t35 23h104q16 -1 27 11t11 28v182q-1 28 17 48t40 19zM1550 811q0 13 -11 20l-612 413q-28 19 -56 0l-610 -413
q-11 -7 -11 -20t11 -20l583 -404q56 -41 115 0l580 404q11 7 11 20zM898 1356q30 0 57 -17l657 -439q47 -31 47 -88v-709q-1 -43 -31 -73t-73 -30h-1310q-43 0 -73 30t-31 73v709q0 57 47 88l654 439q26 17 56 17z" />
    <glyph glyph-name="uniE434" unicode="mail&#x2d;up" 
d="M900 566q-28 0 -44 19t-16 48v182q0 15 -11 27t-27 12h-106q-26 0 -36 24t9 41l190 129q17 17 41 17t42 -17l189 -129q19 -17 9 -41t-36 -24h-104q-25 0 -35 -24q-3 -7 -3 -15v-182q0 -27 -18 -47t-44 -20zM1550 811q0 13 -11 20l-612 413q-28 19 -56 0l-610 -413
q-11 -7 -11 -20t11 -20l583 -404q56 -41 115 0l580 404q11 7 11 20zM898 1356q30 0 57 -17l657 -439q47 -31 47 -88v-709q-1 -43 -31 -73t-73 -30h-1310q-43 0 -73 30t-31 73v709q0 57 47 88l654 439q26 17 56 17z" />
    <glyph glyph-name="uniE435" unicode="check" 
d="M705 0q-29 0 -49 20l-453 453q-39 40 -35 97t46 87q42 31 89 25q46 -6 79 -40l275 -274q21 -21 49 -21t48 21l735 735q33 33 79 39t88 -25q42 -30 47 -87q4 -57 -36 -97l-913 -913q-20 -20 -49 -20z" />
    <glyph glyph-name="uniE436" unicode="delete" 
d="M1091 553q0 -21 15 -36l312 -312q38 -38 34 -94q-4 -55 -46 -85t-86 -24t-77 38l-307 307q-15 15 -36 15t-36 -15l-312 -312q-38 -39 -94 -35t-85 46t-23 86t37 77l307 308q15 15 15 36t-15 36l-312 312q-38 37 -34 93t46 86t86 24t77 -38l307 -307q15 -15 36 -15t36 15
l312 312q38 39 94 35t85 -46t23 -87t-37 -77l-307 -307q-15 -15 -15 -36z" />
    <glyph glyph-name="uniE437" unicode="map" 
d="M1203 0v1107q0 40 22 73t58 49l225 99q40 18 76 -6t37 -68v-1107q0 -40 -22 -73t-58 -49l-225 -99q-40 -17 -76 7t-37 67zM691 147v1107q1 44 37 68t76 6l225 -99q36 -16 58 -49t22 -73v-1107q-1 -43 -37 -67t-76 -7l-225 99q-36 16 -58 49t-22 73zM179 0v1107
q0 40 22 73t58 49l225 99q40 18 76 -6t37 -68v-1107q0 -40 -22 -73t-58 -49l-225 -99q-40 -17 -76 7t-37 67z" />
    <glyph glyph-name="uniE438" unicode="brush" 
d="M710 510q56 -14 100 -54q84 -80 76 -202q-9 -123 -145 -227q-67 -53 -159 -85t-178 -36q-86 -6 -156 20t-98 81q-10 20 10 34q4 0 19 10t29 19q14 8 28 20t30 26q79 73 104 171q28 107 130 175q109 72 210 48zM1512 1281q59 3 101 -39t41 -102t-46 -99
q-216 -187 -434 -417q-26 -26 -39 -80t-61 -102l-67 -67q-11 -11 -27 -7t-23 20q-31 72 -77 118t-118 77q-16 7 -20 23t7 27l67 67q48 48 102 61t80 39q230 218 417 434q38 45 97 47z" />
    <glyph glyph-name="uniE441" unicode="pen" 
d="M208 2q13 13 3 24t-6 21q54 155 123 297q6 12 22 16t29 -8l230 -231q13 -13 9 -29t-16 -22q-134 -65 -298 -122q-8 -2 -20 6t-24 -3l-20 -20q-26 -26 -52 -1q-24 26 0 52zM604 814q0 16 12 26l440 421q41 41 94 17l40 -17q52 -22 90 13q38 34 50 43q60 45 128 43t115 -50
q47 -46 49 -114t-38 -124q-42 -56 -419 -450t-436 -454q-35 -29 -62 -2l-238 238q-27 27 2 62q110 110 641 614q10 9 10 24q0 16 -9 26q-11 10 -25 10t-25 -10l-357 -343q-10 -9 -25 -9t-26 10t-11 26z" />
    <glyph glyph-name="uniE442" unicode="pencil" 
d="M545 22q0 -14 -7 -20q-6 -6 -98 -38t-169 -58t-96 -32t-31 8q-12 12 -9 29q117 351 127 361t23 10t23 -9l227 -228q10 -9 10 -23zM1449 904q0 -18 -13 -30l-783 -783q-12 -13 -30 -13t-30 13l-240 239q-12 12 -12 30t12 31l784 783q11 12 29 12t31 -12l239 -240
q13 -12 13 -30zM1718 1195q0 -40 -28 -68l-142 -141q-12 -13 -30 -13t-30 13l-240 239q-12 13 -12 31t12 29l142 142q28 28 68 28t67 -28l165 -164q28 -28 28 -68z" />
    <glyph glyph-name="uniE443" unicode="thumbtack" 
d="M1148 1310q22 14 48 11t44 -22l280 -280q19 -18 22 -44t-11 -48t-41 -33q-28 -12 -48 0t-44 8t-34 -18t-86 -108t-158 -210q-35 -44 -15 -96q19 -52 7 -119t-48 -102q-66 -64 -123 -7l-153 153q-42 41 -80 8l-443 -403l-44 44q378 414 407 448t-12 75l-153 153
q-56 56 1 119q41 40 108 53q67 12 119 -8t96 15q140 99 312 241q19 14 23 38t-7 44t0 47t33 41z" />
    <glyph glyph-name="uniE444" unicode="male" 
d="M724 181q127 -1 217 89t90 217q0 83 -41 153t-112 112q-71 41 -154 41q-126 1 -216 -89t-90 -217t90 -217t216 -89zM1072 1267h360q30 1 52 -21t21 -53v-360q-1 -33 -31 -46t-54 11l-96 96q-14 14 -32 14t-32 -14l-93 -92q-38 -40 -14 -89q82 -153 50 -311
q-33 -158 -137 -262t-246 -131q-212 -41 -390 90q-99 73 -153 199t-29 283q26 142 130 247q104 104 262 136t312 -50q48 -24 89 14l92 93q14 13 14 32t-14 32l-96 97q-24 23 -11 54t46 31z" />
    <glyph glyph-name="uniE445" unicode="female" 
d="M901 607q127 -1 217 89t89 217q1 127 -89 217t-217 89q-127 1 -217 -89t-89 -217q-1 -127 89 -217t217 -89zM989 377v-105q0 -27 17 -36q17 -10 30 -10h172q29 0 40 -18q10 -18 10 -33v-79q0 -20 -14 -35t-36 -15h-172q-20 0 -34 -14t-13 -32v-172q0 -30 -18 -40t-32 -10
h-79q-22 0 -36 14t-14 36v172q0 18 -14 32t-32 14h-173q-20 0 -35 15t-15 35v79q0 21 15 36t35 15h173q18 0 32 14t14 32l1 105q0 55 -53 73q-166 50 -265 199q-79 119 -79 267t76 260t187 168q110 56 223 56t223 -56q111 -56 187 -168t76 -260t-79 -267q-98 -149 -265 -199
q-23 -8 -38 -28t-15 -45z" />
    <glyph glyph-name="uniE446" unicode="brightness&#x2d;up" 
d="M900 -65q-27 0 -46 19t-19 46v221q0 27 19 46t46 19t46 -19t19 -46v-221q0 -27 -19 -46t-46 -19zM1208 413q27 0 46 -18l156 -157q19 -20 19 -46q-1 -26 -19 -45t-45 -19t-46 19l-156 156q-19 19 -19 46t18 45t46 19zM371 192q0 26 19 46l156 157q19 19 46 19
q48 0 62 -48q9 -34 -16 -63l-157 -156q-19 -19 -45 -19t-46 19q-19 19 -19 45zM1622 657q0 -27 -19 -45t-46 -19h-221q-27 1 -46 19t-19 45t19 46t46 19h221q27 0 46 -19t19 -46zM178 657q0 27 19 46t46 19h221q27 0 46 -19t19 -46t-19 -45t-46 -19h-221q-27 1 -46 19
t-19 45zM900 486q71 0 121 50t50 121t-50 121t-121 50t-121 -50t-50 -121t50 -121t121 -50zM900 944q118 0 202 -84t84 -203t-84 -203t-202 -83q-118 -1 -202 83t-84 203t84 203t202 84zM1429 1122q0 -27 -19 -46l-156 -156q-19 -19 -46 -19q-28 1 -46 19t-18 45t18 46
l157 156q19 19 45 19t46 -18q19 -18 19 -46zM436 1186q26 0 45 -19l157 -156q18 -19 18 -46t-18 -45t-46 -19q-27 0 -46 19l-156 156q-19 19 -19 46q0 28 19 46q20 18 46 18zM900 1379q27 0 46 -19t19 -46v-221q-1 -36 -33 -56q-14 -9 -36 -9t-42 19q-19 19 -19 46v221
q0 27 19 46t46 19z" />
    <glyph glyph-name="uniE447" unicode="brightness&#x2d;down" 
d="M900 54q-27 0 -46 19t-19 45v107q0 26 19 45t46 19t46 -19t19 -45v-107q0 -26 -19 -45t-46 -19zM1283 212q-27 0 -45 19l-76 76q-18 18 -18 45t18 46t46 19q27 0 46 -19l75 -75q19 -19 19 -46t-19 -46t-46 -19zM452 277q0 27 19 46l75 75q19 19 46 19q28 0 46 -19t18 -46
t-18 -45l-76 -76q-18 -18 -45 -18q-27 1 -46 19t-19 45zM1506 660q0 -26 -18 -45t-46 -19h-106q-27 0 -46 19t-19 45t19 46q19 19 46 19h106q28 0 46 -19q18 -20 18 -46zM293 660q0 26 19 46q19 19 46 19h106q27 0 46 -19t19 -41q-1 -22 -9 -37q-18 -32 -56 -32h-106
q-27 0 -46 19t-19 45zM912 489q58 1 109 51q50 50 50 120t-50 121q-51 50 -109 50t-98 -23t-62 -62q-23 -40 -23 -86t23 -86q22 -40 62 -62q40 -23 98 -23zM900 947q118 0 202 -84q84 -85 84 -203t-84 -202t-202 -84t-202 84t-84 202t84 203q84 84 202 84zM1348 1044
q0 -26 -19 -46l-75 -75q-19 -19 -46 -19q-28 0 -46 19t-18 45t18 46l76 75q18 19 45 19t46 -19t19 -45zM517 1108q27 0 45 -19l76 -75q18 -20 18 -46t-18 -45t-46 -19q-27 0 -46 19l-75 75q-19 20 -19 46t19 45t46 19zM896 1267q22 -1 36 -9q32 -19 33 -56v-106
q0 -27 -19 -46t-46 -19t-46 19t-19 46v106q0 27 19 46q20 19 42 19z" />
    <glyph glyph-name="uniE448" unicode="crosshair" 
d="M1366 659h-75q-31 0 -43 20t-12 39q0 18 16 34t39 16h76q38 0 63 30t14 68q-39 143 -144 248t-248 145q-35 10 -66 -14q-31 -23 -31 -64v-76q0 -31 -20 -43q-21 -12 -39 -12t-34 16t-16 39v76q0 39 -30 63t-68 15q-143 -40 -248 -145t-144 -248q-11 -38 14 -68t63 -30h77
q22 0 38 -16t16 -38t-16 -39q-16 -16 -38 -16h-77q-38 -1 -63 -31t-14 -66q40 -144 145 -248t247 -144q38 -10 68 14t30 64v75q0 23 16 39t38 16t39 -16q16 -16 16 -39v-75q1 -40 31 -64t66 -14q141 39 245 142t145 243q12 39 -12 71t-64 33zM914 1429q130 0 264 -57
q132 -56 228 -152t152 -228t56 -278t-56 -278t-152 -228t-228 -152t-278 -56t-278 56t-228 152t-152 228t-56 264q0 131 36 240q36 108 102 196t154 154t197 102t239 37z" />
    <glyph glyph-name="uniE451" unicode="trefoil&#x2d;circle" 
d="M817 539l-214 -351q-23 -38 -9 -80t56 -60q120 -48 252 -48t257 52q42 18 56 60t-10 81l-221 348q-29 43 -83 43q-55 0 -84 -45zM1470 674q46 0 74 35q51 63 -23 226q-73 164 -202 267q-35 28 -79 20t-66 -49l-198 -360q-26 -45 -6 -79q35 -59 88 -60h412zM330 674h412
q53 0 81 46q25 46 2 93l-197 362q-22 39 -66 47t-79 -19q-204 -160 -247 -414q-8 -45 20 -80t74 -35zM900 1475q164 1 312 -63t255 -171t171 -255t63 -312q1 -164 -63 -312t-171 -255t-255 -171t-312 -63q-164 -1 -312 63t-255 171t-171 255t-63 312q-1 164 63 312t171 255
t255 171t312 63z" />
    <glyph glyph-name="uniE452" unicode="cross&#x2d;circle" 
d="M400 909q-128 -259 7 -507q82 -151 235 -235q153 -83 327 -60q91 12 178 55q19 10 23 32t-12 38l-688 689q-16 15 -38 11t-32 -23zM641 1092l689 -688q16 -16 38 -12t32 23q102 205 35 408t-247 317t-392 72q-73 -14 -143 -50q-19 -10 -23 -32t11 -38zM900 1462
q163 0 311 -64t255 -170q106 -107 170 -255t64 -311t-64 -311t-170 -255q-107 -106 -255 -170t-311 -64t-311 64t-255 170q-106 107 -170 255t-64 311t64 311t170 255q107 106 255 170t311 64z" />
    <glyph glyph-name="uniE453" unicode="power" 
d="M1547 664q0 -150 -53 -272q-52 -122 -142 -209t-214 -137t-254 -46q-131 4 -248 58q-118 54 -202 142t-134 207t-47 266q2 147 81 288t214 228q30 19 64 11t51 -39q17 -30 9 -63t-35 -52q-135 -88 -189 -241q-26 -76 -26 -166q0 -89 38 -179t104 -154q65 -64 155 -102
q89 -38 185 -36t182 40t149 100t102 148t42 196t-55 218t-160 176q-28 20 -36 52t9 62q19 30 53 39t64 -10q135 -89 214 -232t79 -293zM894 653q-30 0 -54 25q-26 25 -26 61v546q0 36 26 61t54 25q30 1 50 -11q42 -25 42 -75v-546q0 -49 -42 -75q-20 -12 -50 -11z" />
    <glyph glyph-name="uniE454" unicode="pie&#x2d;chart" 
d="M1034 595h529q27 0 45 -20t15 -47q-17 -153 -97 -282q-80 -130 -209 -210t-282 -96q-39 -2 -53 20t-14 40v529q0 27 20 47t46 19zM1439 728h-505q-41 0 -70 -29t-29 -70v-505q1 -22 -17 -38t-42 -14q-256 21 -431 216q-174 195 -168 458q9 309 269 509q162 125 371 131
q130 4 250 -42q119 -46 209 -127t148 -195t67 -240q3 -22 -13 -38t-39 -16z" />
    <glyph glyph-name="uniE455" unicode="share" 
d="M723 600q0 -36 28 -54l269 -159q42 -23 88 -3q87 38 172 -7q86 -45 103 -140q16 -95 -44 -166t-146 -71q-85 0 -143 54t-62 120t-47 91l-252 148q-40 23 -86 5q-47 -18 -89 -18t-80 20t-64 52q-28 30 -40 74t-4 89q17 98 105 142t170 7q49 -22 90 3l251 150q42 24 46 90
q4 65 62 119t144 54t145 -71q60 -71 44 -165t-104 -140q-87 -46 -170 -8q-49 21 -90 -3l-268 -160q-28 -17 -28 -53z" />
    <glyph glyph-name="uniE456" unicode="move" 
d="M1577 663q0 -17 -13 -29l-264 -220q-14 -12 -30 -4t-16 25v85q0 15 -10 26t-27 11h-211v-210q0 -17 11 -27t26 -10h84q17 0 25 -16t-4 -29l-220 -265q-12 -14 -29 -14t-29 14l-220 265q-11 13 -4 29t25 16h85q15 0 26 10t11 27v211h-210q-17 0 -27 -11t-10 -26v-84
q0 -17 -16 -25t-30 4l-264 221q-13 11 -13 29t13 28l264 220q14 11 30 4t16 -25v-85q0 -15 10 -26t27 -11h211v210q0 16 -11 27t-26 11h-84q-17 -1 -25 15t4 30l220 264q12 14 29 14t29 -14l220 -264q11 -14 4 -30t-25 -15h-85q-15 0 -26 -11t-11 -27v-211h210q17 0 27 11
t10 26v84q0 18 16 25t30 -4l264 -220q13 -12 13 -29z" />
    <glyph glyph-name="uniE457" unicode="star&#x2d;&#x36;" 
d="M1186 286q-52 0 -74 -13t-46 -55q-114 -202 -114 -218q-18 -30 -52 -30t-53 30q0 13 -125 237q-28 49 -97 49q-70 0 -259 -7q-34 0 -52 30t-1 60l19 28q73 111 106 167t33 82t-15 51l-32 53q-28 47 -48 78q-21 32 -34 52t-29 43q-17 31 1 61t52 30q282 -10 311 0
q29 11 45 41q60 105 92 171t38 76t26 18q47 17 74 -28q0 -4 46 -90q46 -87 68 -128q39 -68 95 -68l272 8q35 0 53 -30t-1 -61q1 -1 -7 -11q-47 -66 -99 -153q-51 -87 -51 -113t14 -48q72 -122 142 -226l1 -3q19 -30 1 -60t-53 -30q-196 7 -247 7z" />
    <glyph glyph-name="uniE458" unicode="star&#x2d;&#x35;" 
d="M1161 848h360q30 0 49 -22q18 -22 16 -50t-27 -46l-291 -212q-25 -18 -34 -46t0 -57l112 -343q15 -45 -25 -73q-40 -27 -75 1l-292 212q-24 18 -54 18t-54 -18l-292 -212q-35 -28 -75 -1t-25 73l112 343q9 29 0 57t-34 46l-291 212q-25 18 -27 46t16 50q19 22 49 22h360
q31 0 55 18t33 45l111 343q10 29 36 40t52 0t36 -40l111 -343q9 -27 33 -45t55 -18z" />
    <glyph glyph-name="uniE461" unicode="alert&#x2d;o" 
d="M989 314q0 -36 -26 -63q-27 -26 -57 -26q-30 -1 -50 11q-44 25 -45 70q0 44 26 70t63 26t63 -26t26 -62zM900 456q-18 0 -32 12t-15 31l-40 429q-3 36 21 66t62 32t67 -28q28 -28 24 -67l-40 -432q-1 -19 -15 -31t-32 -12zM233 114h1334q15 0 23 13t0 26l-668 1156
q-6 13 -22 13t-22 -13l-668 -1156q-8 -13 0 -26t23 -13zM900 1509q54 0 82 -47l770 -1335q27 -47 0 -94t-81 -47h-1541q-55 0 -82 47t0 94l770 1335q28 47 82 47z" />
    <glyph glyph-name="uniE462" unicode="alert" 
d="M900 225q36 0 62 26q26 27 26 63t-26 62t-62 26q-37 0 -63 -26t-26 -62t26 -63q26 -26 63 -26zM896 456q47 0 52 43l40 432q4 39 -24 67t-66 28q-38 -2 -64 -32q-24 -30 -20 -66l40 -429q2 -19 16 -31q12 -12 26 -12zM1671 -14h-1541q-55 0 -82 47t0 94l770 1335
q18 30 50 42t64 0t50 -42l770 -1335q27 -47 0 -94t-81 -47z" />
    <glyph glyph-name="uniE463" unicode="option" 
d="M931 771q-40 0 -68 28t-28 68v26q0 41 28 69t68 28h659q40 0 68 -28t28 -69v-26q0 -40 -28 -68t-68 -28h-659zM862 55q-52 0 -82 42l-488 684q-12 17 -33 17h-49q-40 0 -68 28t-28 69v25q0 40 28 68t68 29h131q51 0 81 -42l487 -684q13 -17 33 -17h648q40 0 68 -28
t28 -68v-26q0 -40 -28 -68t-68 -29h-728z" />
    <glyph glyph-name="uniE464" unicode="plus" 
d="M1174 806h356q40 0 68 -28t29 -69v-158q-1 -41 -29 -69t-68 -28h-356q-40 0 -69 -29t-29 -69v-356q0 -40 -28 -68t-69 -29h-158q-41 1 -69 29t-28 68v356q0 40 -29 69t-69 29h-356q-40 0 -68 28t-29 69v158q1 41 29 69t68 28h356q40 0 69 29t29 69v356q0 56 48 84
q22 13 49 13h158q41 -1 69 -29t28 -68v-356q0 -40 29 -69t69 -29z" />
    <glyph glyph-name="uniE465" unicode="minus" 
d="M336 454q-40 0 -68 28t-28 69v161q0 40 28 68t68 29h1128q40 -1 68 -29t28 -68v-161q0 -41 -28 -69t-68 -28h-1128z" />
    <glyph glyph-name="uniE466" unicode="user" 
d="M652 942h496q56 0 86 -50q14 -23 14 -50l-37 -415q-7 -53 -60 -57l-28 -1q-16 -1 -28 -13t-13 -27l-33 -435q-2 -26 -20 -42t-43 -16h-171q-24 0 -42 16t-20 42l-34 435q-1 15 -13 27t-28 13l-28 1q-24 2 -41 18t-19 40l-38 414q0 42 30 71t70 29zM1118 1244
q0 -90 -64 -154t-154 -64t-154 64t-64 154q0 91 64 155q64 63 154 63t154 -64t64 -154z" />
    <glyph glyph-name="uniE467" unicode="group" 
d="M672 892h456q39 0 66 -27t27 -65l-35 -382q-1 -22 -17 -37t-38 -16l-25 -1q-15 0 -26 -11t-12 -26l-30 -401q-3 -26 -21 -39q-18 -14 -37 -14h-158q-30 0 -44 19q-13 19 -14 34l-30 401q-1 15 -12 26t-26 11l-26 1q-22 1 -38 17t-18 37l-34 381q0 38 27 65t65 27z
M1321 895h94q33 0 57 -24t24 -57l-30 -336q-2 -19 -16 -32t-33 -14l-22 -1q-21 0 -27 -13t-6 -19l-27 -352q-4 -47 -51 -47h-117q-19 0 -32 14t-11 33l19 213q0 23 25 31q40 13 67 45t31 75l35 389q0 28 -7 48t2 34q9 13 25 13zM633 0h-117q-20 0 -35 14t-16 33l-27 352
q0 13 -10 23t-23 9l-22 1q-19 1 -33 14t-16 32l-30 336q0 46 40 70q18 11 41 11h94q25 0 31 -26q2 -7 -5 -24q-6 -17 -6 -45l35 -389q4 -43 31 -75t58 -43q31 -10 34 -33l19 -213q2 -19 -11 -33t-32 -14zM1191 1313q75 11 134 -36t65 -107q11 -114 -69 -172t-164 -26
q-15 6 -21 22t3 29q74 116 25 244q-6 16 2 30t25 16zM609 1313q17 -2 25 -16t2 -30q-49 -128 25 -244q23 -37 -33 -57q-30 -12 -74 -1t-78 35t-53 66t-13 104q6 60 65 107t134 36zM1101 1170q0 -84 -59 -142q-59 -59 -142 -59t-142 59q-59 58 -59 142t59 143t142 59t142 -59
t59 -143z" />
    <glyph glyph-name="uniE468" unicode="user&#x2d;plus" 
d="M1285 106h33q13 0 22 10q10 10 8 21q-3 27 -31 27h-32q-10 0 -17 7t-7 17v32q0 28 -26 30q-13 2 -23 -7t-9 -22v-33q0 -10 -7 -17t-16 -7h-33q-28 0 -30 -27q-1 -11 7 -21t22 -10h34q9 0 16 -7t7 -17v-32q0 -28 26 -30q13 0 23 8t9 21v33q0 10 7 17t17 7zM1093 274
q64 64 145 58q80 -6 132 -58t58 -133t-57 -145q-64 -64 -145 -58q-80 6 -132 58t-58 133t57 145zM914 34h-407q-89 0 -123 72q-12 26 -12 59q0 35 15 61t39 44t55 32q85 44 113 64q56 40 56 103t-26 97t-44 56q-108 120 -109 304q-1 272 207 348q58 22 124 22q133 0 232 -87
t99 -275t-109 -312q-46 -52 -58 -84q-12 -33 -12 -64q0 -63 54 -106q12 -11 14 -28t-9 -31q-81 -99 -57 -224q4 -19 -8 -35t-34 -16z" />
    <glyph glyph-name="uniE471" unicode="user&#x2d;minus" 
d="M1146 106h172q13 0 22 10q10 10 8 21q-3 27 -31 27h-170q-28 0 -30 -27q-1 -11 7 -21t22 -10zM1093 274q64 64 145 58q80 -6 132 -58t58 -133t-57 -145q-64 -64 -145 -58q-80 6 -132 58t-58 133t57 145zM914 34h-407q-63 0 -99 36t-36 83t15 73t39 44t55 32q85 44 113 64
q56 40 56 103t-26 97t-44 56q-108 120 -109 304q-1 272 207 348q58 22 124 22q133 0 232 -87t99 -275t-109 -312q-46 -52 -58 -84q-12 -33 -12 -64q0 -63 54 -106q12 -11 14 -28t-9 -31q-81 -99 -57 -224q4 -19 -8 -35t-34 -16z" />
    <glyph glyph-name="uniE472" unicode="user&#x2d;delete" 
d="M1232 186q-10 0 -16 7l-23 23q-19 19 -35 7q-30 -25 -7 -48l23 -23q7 -7 7 -17t-7 -16l-22 -23q-20 -20 -8 -35q25 -30 48 -8l24 24q6 7 16 7t17 -7l24 -24q9 -9 22 -8t25 15t-7 36l-23 23q-20 13 0 33l23 23q19 19 7 35q-24 31 -47 7l-24 -24q-7 -7 -17 -7zM1428 135
q0 -73 -52 -135t-144 -61q-90 -1 -143 61t-53 135t53 135t143 61q90 1 144 -61q52 -62 52 -135zM915 34h-407q-64 0 -100 36t-36 83t15 73t40 44t55 32q30 16 58 32q30 16 54 32q56 40 56 103t-26 97t-44 56q-108 120 -109 304q-1 272 207 348q58 22 124 22q133 0 232 -87
t99 -275t-109 -312q-46 -52 -58 -84q-12 -33 -12 -64q0 -63 54 -106q12 -11 14 -28t-9 -31q-81 -99 -57 -224q4 -19 -8 -35t-33 -16z" />
    <glyph glyph-name="uniE473" unicode="chat" 
d="M797 1178q241 41 443 -109q115 -86 179 -228t40 -321q-27 -178 -155 -308t-301 -162t-330 34q-44 18 -83 -1l-171 -83q-17 -8 -33 4t-12 32l49 193q9 40 -15 78q-118 188 -80 405q30 178 160 308t309 158z" />
    <glyph glyph-name="uniE474" unicode="chat&#x2d;dots" 
d="M1139 521q35 1 59 25t25 58q-1 34 -25 60q-24 25 -59 25t-59 -25q-24 -26 -25 -60q1 -34 25 -58t59 -25zM900 521q36 1 60 25t24 58t-24 60q-24 25 -60 25t-60 -25q-24 -26 -24 -60t24 -58t60 -25zM661 521q35 1 59 25t25 58q-1 34 -25 60q-24 25 -59 25t-59 -25
q-24 -26 -25 -60q1 -34 25 -58t59 -25zM804 1178q242 41 444 -109q113 -84 177 -227t39 -321q-25 -179 -153 -309t-301 -162t-330 34q-44 18 -83 -1l-171 -83q-18 -8 -34 4t-10 32l48 193q10 40 -15 78q-118 188 -80 405q31 178 161 308t308 158z" />
    <glyph glyph-name="uniE475" unicode="chat&#x2d;rect" 
d="M518 180q-93 0 -159 66t-66 159v630q0 93 66 159t159 66h764q93 0 159 -66t66 -159v-630q0 -61 -30 -113t-82 -82t-113 -30h-396q-29 0 -51 -20l-191 -184q-16 -14 -35 -6t-19 30l2 117q0 27 -18 45t-56 18z" />
    <glyph glyph-name="uniE476" unicode="chat&#x2d;rect&#x2d;dots" 
d="M1139 632q35 0 59 24t25 60q-1 36 -25 60t-59 24t-59 -24t-25 -60q1 -36 25 -60t59 -24zM900 632q36 0 60 24t24 60t-24 60t-51 24q-45 0 -69 -24t-24 -60t24 -60t60 -24zM661 632q35 0 59 24t25 60q-1 36 -25 60t-48 24t-38 -4q-58 -21 -57 -83q1 -33 25 -57t59 -24z
M518 1260h764q93 0 159 -66t66 -159v-630q0 -61 -30 -113t-82 -82t-113 -30h-396q-29 0 -51 -20l-191 -184q-16 -14 -35 -6t-19 30l2 117q0 27 -18 45t-56 18q-93 0 -159 66t-66 159v630q0 93 66 159t159 66z" />
    <glyph glyph-name="uniE477" unicode="chat&#x2d;lines" 
d="M689 415h323q34 -1 46 21q13 22 13 42t-17 37t-42 17h-323q-24 0 -41 -17t-17 -41t17 -42q17 -17 41 -17zM689 650h451q25 0 42 18t17 41q0 24 -17 41t-42 17h-451q-37 1 -53 -35q-4 -10 -5 -29q0 -17 17 -35t41 -18zM587 1094q99 66 199 82t180 6t150 -38
q70 -29 132 -75q113 -84 177 -227t39 -321q-25 -179 -153 -309t-301 -162t-330 34q-44 18 -83 -1l-171 -83q-18 -8 -34 4t-10 32l48 193q10 40 -15 78q-118 188 -80 405q20 116 86 216t166 166z" />
    <glyph glyph-name="uniE478" unicode="chat&#x2d;rect&#x2d;lines" 
d="M701 536h323q40 0 54 36q4 11 4 29t-17 35t-41 17h-323q-23 0 -41 -17t-18 -41q0 -23 18 -41t41 -18zM701 771h451q24 -1 42 17t17 42q1 24 -17 42t-42 17h-451q-23 1 -41 -17t-18 -42t18 -42t41 -17zM518 1260h764q93 0 159 -66t66 -159v-630q0 -61 -30 -113t-82 -82
t-113 -30h-396q-29 0 -51 -20l-191 -184q-16 -14 -35 -6t-19 30l2 117q0 27 -18 45t-56 18q-93 0 -159 66t-66 159v630q0 93 66 159t159 66z" />
    <glyph glyph-name="uniE481" unicode="infinity" 
d="M1349 508q35 0 59 24t23 56t-25 57t-57 25q-113 0 -236 -78q-14 -9 -12 -26t18 -23q109 -35 230 -35zM451 508q121 0 230 35q16 6 18 23t-12 26q-123 78 -236 78q-33 0 -57 -25t-25 -57t23 -56t59 -24zM857 391q-209 -92 -385 -92t-268 87t-92 209t89 209q89 86 253 86
q165 0 402 -109q44 -20 88 0q237 109 402 109t253 -86q89 -86 89 -209q0 -122 -92 -209t-268 -87t-385 92q-43 19 -86 0z" />
    <glyph glyph-name="uniE482" unicode="umbrella" 
d="M1554 767q-95 0 -160 -70q-14 -15 -35 -15t-35 15q-65 70 -158 70q-93 -1 -158 -65t-65 -156v-432q-1 -48 35 -82t82 -32t78 35t32 65q0 56 46 57q16 -1 28 -13t12 -28q0 -86 -62 -146t-146 -55t-136 63q-54 58 -54 147v412q0 117 -91 187q-43 34 -98 41
q-112 16 -191 -67q-14 -15 -35 -15t-35 15q-65 69 -159 69q-41 1 -70 -11t-43 1t-8 32q79 215 259 359t410 172q25 3 41 21t17 43v42q0 18 13 30q12 12 30 13q18 -1 30 -13t13 -30v-42q-1 -34 21 -47q22 -14 38 -16q231 -28 412 -172t260 -359q6 -18 -8 -32t-42 -2
q-28 11 -68 11z" />
    <glyph glyph-name="uniE483" unicode="necktie" 
d="M837 911h126q40 1 71 -25t37 -66l103 -599q9 -61 -35 -100l-198 -176q-17 -16 -41 -16t-41 16l-198 176q-45 38 -35 100l102 599q7 39 38 65t71 26zM826 997q-44 0 -75 31t-31 75v148q0 44 31 75t75 31h148q44 0 75 -31t31 -75v-148q0 -44 -31 -75t-75 -31h-148z" />
    <glyph glyph-name="uniE484" unicode="briefcase" 
d="M1410 40v928q0 16 12 28t28 12h56q40 0 70 -29t30 -70v-810q0 -41 -30 -70t-70 -29h-56q-16 0 -28 12t-12 28zM294 1008h56q16 0 28 -12t12 -28v-928q0 -16 -12 -28t-28 -12h-56q-42 0 -71 29t-29 70v810q0 41 29 70t71 29zM1050 1142h-298q-24 0 -41 -17t-17 -41v-56
q0 -8 6 -14t14 -6h374q8 0 14 6t6 14v56q0 32 -21 45t-37 13zM560 1008q20 0 20 20v52q0 99 86 149q40 23 86 23h295q72 0 122 -50t50 -122v-52q0 -8 6 -14t14 -6h45q17 0 29 -12t12 -28v-928q0 -16 -12 -28t-28 -12h-770q-16 0 -28 12t-12 28v928q0 16 12 28t29 12h44z" />
    <glyph glyph-name="uniE485" unicode="first&#x2d;aid" 
d="M1135 483v43q-1 14 -11 24t-25 11h-108q-15 0 -25 10t-10 25v108q0 15 -10 25t-25 10h-42q-15 0 -25 -10t-10 -25v-108q0 -15 -10 -25t-26 -10h-108q-14 -1 -24 -11t-11 -24v-43q1 -15 11 -25t24 -10h108q16 0 26 -10t10 -25v-108q0 -15 10 -25t25 -10h42q15 0 25 10
t10 25v108q0 21 13 28t22 7h108q15 0 25 10t11 25zM1410 40v928q0 16 12 28t28 12h56q40 0 70 -29t30 -70v-810q0 -41 -29 -70t-71 -29h-56q-16 0 -28 12t-12 28zM294 1008h56q16 0 28 -12t12 -28v-928q0 -16 -12 -28t-28 -12h-56q-40 0 -70 29t-30 70v810q0 41 30 70t70 29
zM694 1084v-56q0 -8 6 -14t14 -6h374q8 0 14 6t6 14v56q0 24 -17 41t-41 17h-298q-24 0 -41 -17t-17 -41zM560 1008q20 0 20 20v52q0 99 86 149q40 23 86 23h295q99 0 149 -86q23 -40 23 -86v-52q0 -8 6 -14t14 -6h45q17 0 29 -12t12 -28v-928q0 -16 -12 -28t-28 -12h-770
q-16 0 -28 12t-12 28v928q0 16 12 28t29 12h44z" />
    <glyph glyph-name="uniE486" unicode="capsule" 
d="M690 800q-34 0 -58 -24l-214 -214q-83 -84 -92 -200t55 -195t144 -105q79 -26 161 -8q82 20 142 80l223 223q24 24 24 58t-24 59l-302 302q-25 24 -59 24zM1581 906q0 -164 -117 -281l-564 -564q-78 -76 -180 -103t-204 0q-102 28 -180 104q-76 76 -103 178t0 206
q27 102 103 178l564 564q78 77 180 104t204 0t170 -94q127 -128 127 -292z" />
    <glyph glyph-name="uniE487" unicode="shield" 
d="M900 153q-19 0 -34 12q-175 141 -288 326q-12 21 -5 44t30 34q355 169 694 223q31 4 41 -24q4 -12 1 -26q-117 -345 -405 -577q-15 -12 -34 -12zM900 1270q129 0 253 -26q210 -44 241 -98q18 -31 1 -160q-1 -20 -15 -34t-33 -17q-237 -44 -457 -113q-219 -70 -364 -137
q-14 -7 -30 -1t-22 22q-72 194 -79 395q-3 52 44 76q84 41 208 67t253 26zM1470 1163q0 40 -37 59q-93 50 -237 81t-271 31q-345 0 -558 -112q-37 -20 -37 -66t4 -96t16 -132q12 -81 34 -156q118 -413 484 -690q14 -10 32 -10q40 0 182 140q388 382 388 951zM900 -73
q-28 0 -51 15q-370 254 -532 628q-111 256 -115 552v84q1 72 56 101q113 61 285 108q173 47 353 47t354 -46t295 -111q51 -28 52 -83q1 -56 1 -100t-8 -115q-6 -73 -18 -135t-34 -145q-23 -83 -55 -157q-77 -179 -204 -335t-328 -293q-23 -15 -51 -15z" />
    <glyph glyph-name="uniE488" unicode="moustache" 
d="M1270 382q-199 0 -347 109q-13 10 -31 10t-37 -14q-47 -35 -133 -70t-188 -35q-104 0 -172 15q-125 27 -199 93q-75 65 -93 138q-5 18 13 31t32 -9q35 -53 95 -53q60 -1 109 17t87 44q56 39 149 108q93 68 175 68t143 -32q18 -9 37 0q61 32 126 32t117 -24q51 -24 97 -60
t93 -70q114 -84 220 -83q70 0 105 53q17 26 39 4q23 -22 -23 -92q-79 -122 -263 -164q-69 -16 -151 -16z" />
    <glyph glyph-name="uniE511" unicode="bag" 
d="M914 379q114 -1 190 77t90 213q4 32 -15 44q-20 12 -34 12h-1q-19 0 -33 -12t-16 -31q-9 -94 -59 -148t-122 -55q-72 0 -122 55t-60 148q-2 19 -16 31t-32 12h-1q-23 -1 -37 -17t-13 -39q17 -183 145 -256q60 -34 136 -34zM513 921h801q16 0 21 15t-7 25l-74 55
q-20 14 -44 14h-593q-24 0 -44 -14l-73 -55q-13 -10 -8 -25t21 -15zM1297 -6h-768q-19 0 -35 14t-19 33l-126 846q-7 53 33 84l137 107q31 24 71 24h647q40 0 71 -24l136 -107q43 -33 33 -84l-126 -846q-3 -19 -18 -33t-36 -14z" />
    <glyph glyph-name="uniE512" unicode="tag" 
d="M1398 1090q0 52 -36 88t-88 37q-52 -1 -89 -37t-37 -88t37 -88t89 -37q52 1 88 37t36 88zM784 -29q-40 0 -68 29l-523 523q-28 29 -28 69t28 68l666 666q39 39 94 43l322 21q59 4 101 -38l169 -169q42 -42 38 -101l-21 -322q-4 -55 -43 -94l-666 -666q-29 -29 -69 -29z
" />
    <glyph glyph-name="uniE513" unicode="credit&#x2d;card" 
d="M1037 -76q-43 0 -74 31l-753 752q-30 31 -30 74t30 74l46 45l900 -900l-46 -45q-30 -31 -73 -31zM868 1038q0 28 -21 48l-64 65q-21 20 -49 20t-49 -20l-64 -65q-21 -20 -21 -48t21 -49l64 -65q21 -20 49 -20t49 20l64 65q21 21 21 49zM1620 507q0 -43 -30 -73l-319 -319
l-900 900l319 319q30 30 73 30t73 -30l754 -753q30 -31 30 -74z" />
    <glyph glyph-name="uniE514" unicode="planet" 
d="M710 187q303 94 581 244q12 5 22 -3t6 -21q-29 -89 -93 -159t-156 -108q-185 -77 -363 11q-11 6 -10 19t13 17zM1318 828l-17 23q-10 13 -4 28t22 18q121 21 203 11t100 -52q36 -85 -124 -216t-517 -282q-225 -96 -403 -140t-278 -35t-121 58q-41 97 179 254q13 9 28 3
t18 -22l3 -24q4 -25 -16 -39q-66 -48 -101 -84q-34 -36 -30 -47t36 -14q71 -6 234 30q298 66 650 247q180 93 276 170t86 97q-12 28 -185 0q-24 -3 -39 16zM1282 678q-152 -90 -358 -178t-385 -132q-37 -7 -50 28q-77 243 66 423q69 87 161 126q174 73 335 14t247 -226
q6 -15 2 -31t-18 -24z" />
    <glyph glyph-name="uniE515" unicode="earth" 
d="M346 697q0 -151 60 -267t162 -194q103 -77 230 -101q14 -3 22 8t2 23t-36 54t-50 86t-30 93q-10 50 -10 82t-7 69q-6 37 -20 66q-23 47 -71 91t-61 128t5 137t78 100q101 79 91 101t-27 15q-150 -64 -244 -202t-94 -289zM900 1232q-100 0 -110 -17t0 -48t16 -41t15 -14
t17 -7q8 -2 22 0q14 3 24 5q10 3 54 14q43 10 82 -12t41 -60q3 -62 -52 -97t-75 -58t-20 -49t8 -54t8 -37q0 -21 -18 -21t-32 14t-22 23q-8 7 -16 13q-7 6 -14 10q-6 4 -12 6t-12 2t-10 2q-4 0 -10 -2q-98 -24 -63 -128q18 -55 95 -50t136 -2q109 -12 151 -66
q43 -55 -49 -151q-50 -53 -78 -115q-42 -94 -16 -127q26 -34 64 -25q123 28 222 107t153 192q16 33 7 69t-27 48q-18 14 -82 56q-95 81 -24 117q20 10 54 18h1q34 8 58 34q48 54 19 124q-67 147 -203 237t-302 90zM900 1357q138 1 264 -53t216 -145q91 -91 145 -217t54 -263
q0 -138 -54 -264t-145 -217q-90 -90 -216 -144t-264 -54t-264 54t-216 144q-91 91 -145 217t-54 264q0 137 54 263t145 217q90 91 216 145t264 53z" />
    <glyph glyph-name="uniE516" unicode="globe" 
d="M679 994q51 90 38 102t-24 1q-89 -87 -117 -209t14 -232q42 -109 116 -175t170 -92q94 -26 191 -8q10 3 13 13q4 10 -4 16t-41 28t-63 52t-53 70q-23 41 -39 74q-16 34 -36 52t-43 30t-40 18q-42 16 -87 93q-46 77 5 167zM894 860q-4 0 -9 -2t-7 -2q-2 -1 -7 -3
q-3 -2 -5 -3t-5 -4t-4 -3q-45 -45 5 -100q22 -28 49 -20t43 16q144 71 211 29q44 -27 8 -122q-21 -51 -23 -106q-2 -54 8 -74q11 -20 31 -25t37 6q80 55 128 139t55 178q2 28 -14 51t-33 27t-73 17q-66 24 -64 49q3 25 47 55l1 1q34 24 37 64t-26 69q-88 85 -208 111
q-165 35 -306 -51q-20 -13 -9 -29q13 -16 23 -28q21 -24 41 -18t38 19q18 14 21 15q34 26 68 21t51 -41q16 -27 -12 -70q-9 -14 -23 -34t-18 -36q-6 -17 0 -36t21 -37t19 -28q4 -9 -10 -15t-27 1t-21 10t-15 5t-13 3t-10 1zM978 279q-148 0 -280 88q-133 88 -192 240
q-86 222 26 434q71 134 208 209q16 8 9 25l-12 29q-7 24 -32 12q-149 -82 -235 -232t-74 -329t127 -323t285 -199q170 -56 340 -7q12 4 18 16t1 23l-8 20q-7 21 -28 14q-77 -20 -153 -20zM1505 798q0 -96 -31 -180q-30 -84 -92 -158q-62 -72 -145 -118q-18 -9 -11 -28
l11 -29q10 -20 37 -13q28 7 44 -14t12 -44q-6 -23 -27 -34q-103 -53 -219 -69q-24 -3 -38 -23t-10 -48q6 -28 40 -40q214 -77 214 -111q0 -27 -88 -47t-214 -21q-126 1 -214 21t-87 47q0 34 214 111q35 12 39 40t-10 48q-14 19 -38 22q-126 18 -236 78t-190 150t-126 209
t-46 260t62 277t173 231q110 96 249 140q46 14 66 -35q10 -26 -18 -48t-18 -47l8 -22q7 -16 25 -12q240 65 438 -67q132 -88 191 -239q35 -91 35 -187z" />
    <glyph glyph-name="uniE517" unicode="trophy" 
d="M1219 776q-5 -24 15 -36t38 5q104 102 156 254q26 74 29 145q1 14 -11 24t-25 8l-98 -14q-25 -3 -42 -22t-18 -44q-7 -170 -44 -320zM529 745q17 -17 38 -5t15 36q-37 150 -44 320q-1 25 -18 44t-42 22l-98 14q-14 2 -26 -8t-10 -24q4 -106 56 -214t129 -185zM980 298
q0 -78 59 -92q172 -46 172 -117q1 -37 -81 -64t-230 -27t-230 27t-81 64q0 54 116 99q25 10 49 16t45 23t21 64t-27 99t-94 96t-137 104t-118 112t-84 108q-67 103 -91 193q-25 90 -32 185q-4 39 24 66t67 23q302 -36 572 -36t572 36q39 4 67 -23t24 -71t-10 -82
q-7 -38 -21 -91t-35 -98q-53 -113 -150 -219q-97 -107 -265 -220q-48 -33 -75 -83t-27 -92z" />
    <glyph glyph-name="uniE518" unicode="medal" 
d="M856 620v36q0 19 -14 33t-33 14h-118q-45 0 -75 31t-30 74v549q0 43 30 74t75 31h414q44 0 75 -31t31 -74v-549q0 -43 -31 -74t-75 -31h-116q-20 0 -34 -14t-14 -33v-33q0 -31 19 -56l63 -82q26 -34 66 -49l133 -47q24 -9 32 -34t-7 -46l-78 -107q-26 -37 -27 -83
l-2 -138q0 -25 -22 -41t-46 -8l-127 41q-45 14 -90 0l-127 -41q-24 -8 -46 7t-22 41l-2 139q-1 46 -28 83l-77 108q-15 22 -7 46t31 33l135 48q40 15 66 49l59 78q19 25 19 56z" />
    <glyph glyph-name="uniE521" unicode="trashcan" 
d="M514 887h799q29 -1 47 -21t16 -48l-68 -812q-2 -23 -19 -39t-40 -16h-670q-24 0 -41 16t-19 39l-68 812q-1 28 17 48t46 21zM1377 998h-927q-30 0 -48 24t-9 53l28 107q10 33 46 40q74 14 242 23q26 3 36 34t33 62q18 21 136 21t134 -20t27 -46t13 -30q9 -20 38 -22
q30 -1 124 -10t110 -12q36 -7 46 -40l29 -107q9 -29 -9 -53t-49 -24z" />
    <glyph glyph-name="uniE522" unicode="burn" 
d="M280 568h342q22 0 38 -14t20 -35q15 -72 61 -113t22 -83l-171 -296q-19 -34 -57 -42t-69 15q-113 86 -184 209q-70 123 -89 262q-6 53 40 83q21 14 47 14zM1186 569h342q40 0 66 -29t21 -67q-19 -141 -89 -263t-183 -209q-31 -23 -69 -15t-58 42l-171 296q-23 44 13 75
q55 49 70 121q10 49 58 49zM1050 568q0 -60 -43 -103t-103 -43t-104 43q-43 43 -43 103t43 104q44 43 104 43t103 -43q43 -44 43 -104zM904 1286q142 0 271 -54q36 -15 48 -52t-7 -71l-171 -296q-24 -42 -83 -22q-59 19 -128 -5q-49 -13 -72 26l-171 296q-20 34 -8 72t48 51
q131 55 273 55z" />
    <glyph glyph-name="uniE523" unicode="leaf" 
d="M1119 886q20 12 8 32t-32 8q-309 -188 -524 -412q-87 -90 -143 -170q-24 -34 -14 -62t28 -31t28 12q196 289 460 494q104 81 189 129zM342 339q0 398 346 608q295 178 812 205q38 3 55 -32t-9 -64q-166 -186 -210 -349q-52 -213 -167 -343t-295 -204t-411 -8
q-27 8 -53 -4t-39 -37l-58 -111q-11 -20 -30 -28t-39 2t-26 31t6 40q72 123 90 151t23 48t6 34q1 12 0 34t-1 27z" />
    <glyph glyph-name="uniE524" unicode="lamp" 
d="M1114 62q-42 -70 -207 -71q-166 1 -207 71q-42 70 -63 136q-35 111 -13 187q23 76 82 115q12 8 28 18t25 17q44 29 44 84v31q-1 44 -39 68q-18 11 -38 12q-165 6 -329 22q-28 3 -41 27t0 48l298 572q35 63 105 63h297q71 0 104 -63l299 -572q13 -24 0 -48t-41 -27
q-165 -16 -330 -22q-32 0 -54 -24t-23 -56v-30q0 -55 45 -86q10 -7 46 -29t55 -48t31 -64q12 -37 10 -83t-22 -112t-62 -136z" />
    <glyph glyph-name="uniE525" unicode="home" 
d="M900 1199q36 0 63 -21l501 -391q33 -26 33 -68v-634q1 -35 -25 -61t-61 -25h-240q-35 -1 -61 25t-26 61v293q0 36 -25 61t-61 25h-197q-36 0 -61 -25t-25 -61v-293q1 -35 -25 -61t-62 -25h-238q-36 -1 -62 25t-25 61v634q0 42 34 68l500 391q27 21 63 21z" />
    <glyph glyph-name="uniE526" unicode="help" 
d="M751 178l11 39q6 21 -2 41t-29 28q-122 59 -181 182q-21 41 -68 30l-39 -9q-29 -7 -43 -34t0 -53q85 -181 264 -265q26 -11 52 1t35 40zM1401 401q17 37 -3 60q-19 22 -38 27l-39 10q-20 6 -40 -2t-29 -28q-59 -122 -181 -182q-19 -9 -27 -28t-4 -39l10 -40q8 -27 34 -41
t53 -1q179 85 264 264zM597 636q-1 -126 89 -216t217 -89q127 0 216 90t89 216q0 125 -90 215t-216 90t-216 -90t-89 -216zM1051 1097l-11 -39q-6 -20 2 -40t28 -29q123 -60 182 -182q9 -19 28 -27t39 -3l40 9q29 7 42 34t-3 62q-37 79 -106 147q-69 69 -155 108
q-27 13 -53 1t-33 -41zM401 874q-17 -37 3 -60q19 -22 38 -27l38 -11q30 -6 47 6t23 25q59 122 181 182q19 9 27 28t4 39l-10 39q-8 29 -34 43t-53 0q-179 -85 -264 -264zM901 1276q130 0 248 -50q117 -50 203 -136t136 -204t51 -248q-1 -130 -51 -248t-136 -204t-203 -136
q-118 -50 -248 -50t-248 50q-117 50 -203 136t-136 204t-51 248q1 130 51 248t136 204t203 136q118 50 248 50z" />
    <glyph glyph-name="uniE527" unicode="magnet" 
d="M553 0q-77 172 -63 197q6 11 18 14l121 32q16 5 31 -3t21 -25q21 -66 37 -106t12 -50t-15 -15l-124 -58q-11 -5 -23 -1t-15 15zM1080 65q-4 11 11 51q16 40 29 80t24 46t23 3l129 -35q14 -2 20 -14q13 -23 -58 -192q-5 -13 -18 -17t-25 2l-120 60q-11 5 -15 16zM903 975
q-144 0 -222 -105q-126 -171 -37 -528q2 -13 -4 -24t-18 -14l-127 -34q-13 -3 -25 4t-14 20q-64 280 -20 494q50 242 247 333q99 46 221 46q252 0 382 -178q62 -82 86 -202q44 -215 -22 -495q-2 -14 -14 -20t-25 -3l-126 34q-13 3 -19 14t-3 24q89 358 -38 529
q-40 55 -101 80t-121 25z" />
    <glyph glyph-name="uniE528" unicode="heart" 
d="M903 -32q-47 0 -82 32q-328 301 -554 564q-81 82 -105 192t18 218q41 106 132 172q90 66 198 73t206 -42t153 -145q12 -20 34 -20t34 20q59 103 173 154q78 36 166 34t162 -40t124 -97q91 -108 86 -263q-4 -154 -114 -264q-241 -276 -549 -556q-35 -32 -82 -32z" />
    <glyph glyph-name="uniE531" unicode="d&#x36;" 
d="M1046 177q24 25 30 56q4 31 -15 49t-49 14t-56 -30q-24 -26 -28 -56t14 -50q20 -18 50 -13t54 30zM608 262q16 4 20 30q5 26 -3 62q-9 34 -25 56t-32 18t-20 -30q-6 -26 2 -62q8 -34 26 -56q16 -22 32 -18zM1410 350q24 26 28 56t-14 50q-20 18 -50 13t-54 -31t-30 -56
q-4 -30 15 -48t49 -14q32 4 56 30zM1222 442q24 26 28 56t-14 48q-20 18 -50 14t-54 -30t-30 -56q-4 -30 15 -50q19 -18 49 -13q32 5 56 31zM938 634q-24 -26 -30 -57q-4 -31 15 -49t49 -13t56 30q24 25 28 56t-14 49q-20 18 -50 14t-54 -30zM510 502q16 4 20 30q5 28 -3 62
q-9 34 -25 56t-32 18t-20 -31q-5 -27 3 -61q9 -34 25 -56t32 -18zM1304 776q-24 -26 -26 -57q-3 -31 16 -49q20 -18 50 -11q30 6 54 32t27 57q3 30 -17 48t-50 12t-54 -32zM412 738q16 4 20 30q5 26 -3 60q-9 34 -25 57q-16 22 -32 18q-16 -5 -20 -31q-5 -26 3 -60
q9 -34 25 -56t32 -18zM754 610q0 76 3 90t15 27q12 12 42 25q32 13 348 125q316 111 343 121t34 6t9 -23q-1 -101 -22 -615q-2 -63 -50 -86l-157 -77q-405 -201 -484 -236q-52 -26 -56 42q-25 525 -25 601zM687 641q0 -71 26 -600q1 -15 -13 -21t-23 7q-109 138 -338 442
q-31 41 -35 137l-12 261q-4 96 -9 229q-1 14 12 20t23 -5l334 -332q20 -19 28 -43t7 -95zM847 1170q-48 -22 -45 -47q4 -25 30 -37t61 -8t58 20q23 18 21 39t-40 38q-37 17 -85 -5zM1478 1055q-514 -170 -682 -239q-43 -12 -60 -10t-38 21l-354 352q-8 7 -5 19t14 15l237 65
q148 40 248 68t123 33q23 6 46 -7q22 -12 217 -128t257 -152q13 -6 11 -20t-14 -17z" />
    <glyph glyph-name="uniE532" unicode="asterisk" 
d="M1156 743h210q42 0 75 -26q33 -27 39 -63t-8 -66q-29 -65 -100 -65h-216q-15 0 -32 -14t-4 -47l109 -187q25 -43 8 -91t-60 -65t-82 -1t-60 52l-105 182q-11 21 -35 21t-35 -21l-108 -187q-26 -43 -76 -53t-85 20q-36 29 -42 71t15 77l105 182q13 21 1 41t-36 20h-216
q-70 0 -100 65q-14 30 -8 66t39 63q33 26 75 26h210q24 1 36 21t-1 40l-108 187q-25 43 -8 91t60 66q43 16 82 0t60 -52l105 -182q11 -20 35 -20t35 20l108 187q26 44 76 53t85 -20q36 -29 42 -71t-15 -77l-106 -182q-12 -20 0 -40t36 -21z" />
    <glyph glyph-name="uniE533" unicode="flask" 
d="M1251 171h-710q-23 -1 -33 19t1 38l189 294q22 35 83 35t120 -14t85 -14t37 1t19 3t24 4t32 -20l185 -289q11 -18 1 -38t-33 -19zM488 86h817q37 0 63 24q56 50 16 122l-295 456q-79 122 -79 267v325q0 19 -14 33t-32 14h-137q-19 0 -33 -14t-13 -33v-327
q0 -145 -79 -267l-294 -454q-40 -72 16 -122q26 -24 64 -24zM491 0q-53 0 -96 27t-65 68t-22 92t30 95l293 449q65 99 65 218v241q0 77 -41 147q-14 25 0 51t43 25h396q30 1 44 -25t-1 -51q-40 -70 -40 -147v-241q0 -119 64 -218l293 -449q70 -112 -14 -218
q-51 -65 -138 -64h-811z" />
    <glyph glyph-name="uniE534" unicode="flask&#x2d;tilted" 
d="M751 622q50 0 111 -14t97 -15l55 5q22 2 32 -10q9 -13 11 -23l79 -417q4 -23 -14 -38t-40 -6l-654 271q-22 9 -24 33t16 36l235 161q46 17 96 17zM344 315l756 -310q52 -23 96 13t33 92l-100 533q-26 143 29 278l123 300q9 17 1 35t-26 26l-127 52q-17 8 -35 0t-25 -26
l-125 -302q-55 -135 -174 -218l-444 -308q-30 -20 -38 -54t8 -66t48 -45zM1212 656l101 -527q24 -129 -95 -197q-67 -39 -153 -6l-751 308q-48 20 -78 62t-34 87q-5 46 15 93t63 77l442 304q97 67 143 177l91 223q29 71 18 152q-4 29 19 47t50 6l366 -150q27 -11 31 -40
t-20 -46q-64 -50 -93 -121l-92 -223q-45 -110 -23 -226z" />
    <glyph glyph-name="uniE535" unicode="test&#x2d;tube" 
d="M900 931q18 1 30 3q20 4 30 -5q11 -9 11 -24v-748q1 -30 -21 -51q-22 -20 -52 -20t-50 22t-21 52v747q-1 14 11 23t28 5t34 -4zM1058 157v1125q0 21 -15 36t-35 15h-215q-21 0 -36 -15t-15 -36v-1116q0 -87 70 -138q32 -24 87 -30t107 42q52 47 52 117zM657 1418h486
q30 0 42 -21q13 -21 9 -31t-12 -28q-8 -19 -24 -54q-15 -35 -15 -75v-1054q0 -99 -73 -169q-72 -70 -172 -71q-100 1 -170 71t-71 169v1054q0 47 -24 97q-24 52 -26 56q-5 11 7 33q11 23 43 23z" />
    <glyph glyph-name="uniE536" unicode="mallet" 
d="M777 823q0 -18 12 -30l159 -158q22 -24 68 -21t86 -37l400 -401q41 -40 37 -98t-46 -88q-41 -32 -89 -28t-82 38l-398 399q-42 39 -38 85t-20 70l-158 157q-12 13 -30 13t-31 -13l-17 -17q-34 -34 -12 -73q42 -73 -9 -123q-28 -26 -67 -26t-67 28l-308 309q-29 27 -29 67
t26 65q52 51 121 13q42 -26 73 8l180 180q33 31 11 70q-42 74 9 124q28 27 67 26t67 -28l309 -309q27 -27 28 -67t-25 -64q-52 -52 -122 -14q-40 25 -75 -8l-18 -18q-12 -13 -12 -31z" />
    <glyph glyph-name="uniE537" unicode="fork&#x2d;spoon" 
d="M1453 1034q0 -186 -142 -262q-29 -16 -27 -51l36 -781q0 -46 -33 -79t-71 -33t-64 15q-56 33 -56 97l38 781q1 35 -28 51q-61 34 -101 96t-40 148q1 86 23 173t58 146t78 93q43 34 85 34t85 -34q42 -34 78 -93t58 -146t23 -155zM590 1468q12 0 21 -8t10 -21l18 -395
q0 -18 12 -30t29 -12q18 0 30 12t12 30q2 173 -14 391q-1 13 8 23q10 10 22 10t24 -7t15 -18q48 -241 48 -464q-1 -91 -61 -159q-30 -34 -65 -50q-36 -17 -33 -54l35 -776q-1 -46 -33 -79t-78 -33t-80 33q-32 33 -32 79l37 775q3 34 -29 52q-84 41 -116 127q-16 41 -16 85
q0 223 48 464q2 11 14 18t26 7q12 0 22 -10t8 -23q-17 -218 -14 -391q0 -18 12 -30t30 -12t29 12q12 12 12 30l18 395q0 13 9 21q10 8 22 8z" />
    <glyph glyph-name="uniE538" unicode="spatula" 
d="M1112 757q0 -20 15 -35l26 -26q17 -16 39 -15t36 18l236 272q12 15 12 35t-15 33l-18 19q-13 12 -30 12t-29 -13l-258 -266q-14 -14 -14 -34zM1039 878l266 258q13 12 13 30t-13 29l-18 18q-13 14 -33 15t-35 -12l-272 -235q-17 -15 -18 -37t15 -39l26 -26q14 -15 34 -15
t35 14zM1309 588q-35 -45 -88 -47q-109 -4 -241 51q-24 11 -42 -8l-531 -584q-61 -60 -140 -14q-40 24 -49 62q-16 68 30 111l583 531q19 18 9 42q-56 132 -52 241q2 54 47 89q217 176 345 263q58 45 138 -23q120 -102 233 -235l16 -19q21 -24 23 -57t-18 -59
q-138 -196 -263 -344z" />
    <glyph glyph-name="uniE541" unicode="chef&#x2d;hat" 
d="M1276 -77h-737q-38 0 -56 33t-4 55q32 51 30 72l-20 359q-2 33 -22 58t-51 33q-87 23 -144 95t-57 158q0 85 40 149t107 98q28 15 25 48q-3 31 -3 59q0 62 66 133q66 70 166 70q70 1 129 -39q19 -12 43 -8t38 23q65 97 175 130q162 49 312 -77q66 -56 86 -115
q21 -59 21 -93t-6 -71q-6 -38 31 -57q69 -33 111 -98t42 -151q0 -87 -57 -159t-145 -95q-30 -8 -50 -33t-22 -57l-21 -358q-3 -23 22 -58t7 -69t-56 -35z" />
    <glyph glyph-name="uniE542" unicode="place&#x2d;setting" 
d="M1209 596q1 -66 -11 -109q-12 -41 -33 -77q-42 -72 -117 -116q-74 -44 -162 -44q-90 0 -164 43t-118 118t-43 163q-1 88 43 162t118 118q74 43 163 43q88 0 163 -43q75 -44 118 -118t43 -140zM886 180q106 0 196 53t144 143q52 90 52 198q0 106 -52 196t-144 144
q-90 53 -196 53t-198 -53q-92 -54 -144 -144t-52 -196t52 -198q52 -90 144 -143t198 -53zM1640 983q16 0 15 -14l9 -198q0 -21 21 -21t21 21q1 87 -7 196q0 16 16 16t19 -12q24 -121 24 -233q0 -33 -18 -62t-40 -40t-22 -30l18 -388q0 -24 -16 -40t-40 -16t-40 16t-17 40
l19 388q1 20 -17 28t-41 33t-23 71q0 112 24 233q2 12 15 12q23 0 20 -16q-8 -109 -6 -196q0 -21 20 -21t21 21l9 198q0 14 16 14zM182 994v-800q0 -28 -18 -43t-42 -15q-22 0 -40 16t-19 40q0 24 17 239q2 30 -19 70t-21 60v25q-1 305 114 419q8 8 18 4t10 -15zM866 1129
q94 0 167 -20q72 -19 133 -55q124 -72 199 -201q76 -128 76 -260q0 -133 -44 -235q-45 -102 -119 -178q-74 -74 -177 -118t-216 -44t-215 44t-178 118q-74 74 -118 178q-44 102 -44 216t44 216t118 176t178 119q102 44 196 44z" />
    <glyph glyph-name="uniE543" unicode="knife&#x2d;fork" 
d="M1170 1528q12 0 21 -8t10 -21l18 -395q0 -18 12 -30q11 -12 29 -12t30 12t12 30q3 173 -14 391q-1 13 8 23t22 10q14 0 26 -8t14 -17q48 -241 48 -464q0 -67 -36 -125t-95 -86q-31 -16 -29 -52l36 -776q0 -46 -33 -79t-67 -33q-58 0 -91 33t-33 79l37 775q2 36 -29 52
q-60 29 -96 87t-36 125q0 223 48 464q2 9 14 17t26 8q13 0 22 -10t8 -23q-16 -218 -14 -391q0 -18 12 -30t30 -12t29 12q12 12 12 30l18 395q1 13 9 21q10 8 22 8zM535 6q0 36 31 440q6 54 -34 130t-40 147v85q0 165 27 296q27 132 49 192q53 144 137 228q15 14 35 6t19 -28
l-1 -1503q0 -85 -88 -105q-45 -11 -77 9q-33 19 -45 43t-13 60z" />
    <glyph glyph-name="uniE544" unicode="grill&#x2d;open" 
d="M712 -50h371q20 0 33 15t11 35l-33 245q-8 55 -84 38q-44 -10 -112 -10t-113 10q-76 17 -84 -38l-33 -245q-2 -20 11 -35t33 -15zM639 450q11 -8 24 -4t20 15t4 24t-14 19q-108 67 -155 183q-9 28 -39 18q-13 -3 -19 -16t-1 -26q55 -136 180 -213zM1107 -131h-419
q-16 -1 -28 -11t-14 -26l-17 -125q-2 -17 -16 -27q-13 -10 -31 -8t-29 16t-9 30l79 584q4 34 -27 52q-116 66 -194 178t-99 248q-2 16 9 28t28 13h1115q17 -1 28 -13t8 -28q-21 -136 -99 -248t-193 -178q-31 -18 -27 -52l79 -584q3 -26 -21 -40q-24 -15 -43 -1
q-19 13 -21 30l-17 125q-2 16 -14 26t-28 11zM786 1176q0 -14 18 -36t36 -46t18 -44q0 -49 -40 -87q-6 -5 -12 -1t-2 20q5 16 5 32q0 29 -35 56t-35 66q0 40 32 81q5 6 13 3q8 -2 4 -16q-2 -14 -2 -28zM947 1288q1 -26 9 -44t20 -32q36 -39 60 -67q24 -29 24 -69
q0 -101 -89 -160q-9 -4 -12 2t-2 10q26 60 26 88q1 28 -11 46t-28 33q-16 13 -32 29q-40 37 -40 87t21 91q22 41 53 63q5 5 11 1t-2 -28t-8 -50z" />
    <glyph glyph-name="uniE545" unicode="grill" 
d="M711 -50h371q20 0 34 16t10 34l-33 245q-7 55 -83 38q-44 -10 -113 -10t-113 10q-76 17 -83 -38l-33 -245q-7 -32 25 -46q9 -4 18 -4zM638 450q28 -16 45 11q15 27 -11 44q-108 66 -154 183q-12 25 -32 20q-41 -11 -28 -45q55 -135 180 -213zM1106 -131h-418
q-16 -1 -28 -11t-15 -26l-17 -125q-2 -17 -16 -27q-26 -18 -49 -2q-23 17 -19 40l78 584q5 34 -27 52q-116 68 -193 180t-99 246q-3 16 9 28t27 13h1116q69 0 -4 -181t-253 -286q-31 -18 -26 -52l78 -584q2 -16 -8 -30q-20 -25 -46 -15t-31 34l-16 125q-3 16 -15 26t-28 11z
M938 1434q0 16 -12 28t-28 12t-28 -12t-12 -28v-2q30 2 40 2t40 -2v2zM1451 888h-1108q-17 0 -29 12t-8 29q29 181 154 315t302 174q26 6 30 30t18 46q30 47 80 47q50 -1 78 -27t32 -58q6 -32 32 -38q177 -40 302 -174t154 -315q2 -17 -9 -29t-28 -12z" />
    <glyph glyph-name="uniE546" unicode="platter" 
d="M138 160q-39 0 -39 44q-1 12 11 24t28 12h1510q16 0 28 -12t11 -28q1 -16 -11 -28t-28 -12q0 -18 -755 -18t-755 18zM943 966q0 20 -14 34q-15 14 -35 15q-20 -1 -34 -15t-15 -34l1 -2q36 2 48 2t49 -2v2zM1568 303h-1350q-20 -1 -34 15t-11 36q35 220 187 382t369 211
q30 9 35 38q6 29 22 54q38 57 99 57q60 0 94 -32t42 -81q6 -27 37 -36q216 -49 368 -211t187 -382q3 -20 -11 -36t-34 -15z" />
    <glyph glyph-name="uniE547" unicode="droplet" 
d="M621 301q1 -125 87 -213t208 -88q84 0 94 26q6 14 0 28t-22 17q-110 19 -192 100t-103 194q-3 17 -17 24t-28 1q-26 -11 -27 -89zM1358 298q0 -96 -27 -168q-27 -73 -73 -126q-46 -54 -103 -92t-121 -58t-126 -19q-62 -1 -126 19q-133 41 -229 154q-96 112 -96 278
q0 108 34 224q57 194 169 357t213 269q15 15 35 15q20 1 48 -29t71 -80t107 -142t110 -182t80 -208q34 -116 34 -212z" />
    <glyph glyph-name="uniE548" unicode="wine" 
d="M777 1080q55 0 129 -18t115 -17l56 5q17 -1 29 -14t13 -31l5 -139q-1 -78 -46 -140q-44 -62 -116 -80t-136 8t-104 84q-38 56 -40 131q-3 159 19 185q21 26 76 26zM907 556q124 0 212 90t88 214q-1 182 -21 295q0 17 -12 27t-28 10h-484q-23 0 -31 -14q-9 -14 -9 -22
t-4 -34t-5 -34t-4 -34t-4 -38t-3 -35t-2 -39v-39q0 -22 1 -43q-1 -82 41 -152t112 -111t153 -41zM1177 0q1 -27 -81 -44t-192 -17t-192 17t-81 44q0 34 157 79q33 9 53 35t20 60l-2 231q0 27 -17 53t-40 29q-96 27 -170 97t-100 163q-24 124 -12 250l15 165q5 48 41 81
t84 33h485q48 0 84 -32t40 -81l18 -174q11 -118 -8 -235q-24 -95 -100 -167t-171 -100q-23 -5 -40 -30t-18 -51l-2 -231q-2 -77 88 -101q48 -13 94 -35t47 -39z" />
    <glyph glyph-name="uniE551" unicode="wine&#x2d;tilted" 
d="M982 815q66 1 150 -23q82 -24 120 -24t58 2q21 2 36 0q16 -2 20 -16t-8 -25l-140 -157q-60 -65 -155 -65t-151 60q-57 60 -65 107t2 98q4 16 19 23q48 20 114 20zM1065 424q125 0 214 89q128 129 193 224q25 28 -1 54l-343 342q-26 26 -54 2q-19 -11 -40 -29
q-20 -18 -40 -33t-30 -23t-26 -24q-53 -45 -88 -85q-89 -89 -87 -216q1 -127 89 -214t213 -87zM874 390q-20 14 -52 8t-51 -24l-160 -162q-55 -55 -9 -133q25 -43 42 -92t6 -61q-20 -19 -90 27t-147 123t-123 147q-46 69 -30 85q28 28 170 -51q28 -17 62 -13t57 29l162 165
q18 18 22 50t-10 53q-47 83 -48 183t47 186q71 105 168 186l127 106q39 30 87 28t82 -36l343 -343q35 -34 37 -82t-29 -86l-111 -135q-75 -91 -171 -160q-91 -50 -193 -48t-188 50z" />
    <glyph glyph-name="uniE552" unicode="drink" 
d="M1027 84h-243q-17 0 -30 12t-14 30l-37 575q-4 52 81 52q46 1 120 -17t109 -18l54 2q17 -1 29 -14t10 -31l-35 -549q-1 -18 -14 -30t-30 -12zM1259 1087q0 41 -39 41h-629q-19 0 -29 -10t-10 -24t4 -25q43 -84 47 -140l58 -889q1 -16 13 -28t30 -12h403q17 0 29 12t14 28
l58 889q4 56 47 140q4 8 4 18zM1108 -86h-405q-51 0 -89 35t-40 86l-54 882q-4 59 -33 99t-21 90t46 78q38 30 86 30h617q48 0 86 -30t46 -79t-22 -90t-34 -100l-54 -880q-4 -71 -66 -105q-29 -16 -63 -16z" />
    <glyph glyph-name="uniE553" unicode="drink&#x2d;straw" 
d="M1024 84h-242q-18 0 -31 12t-14 30l-37 575q-4 52 81 52q46 1 121 -17t108 -18l54 2q18 -1 30 -14t10 -31l-36 -549q-1 -18 -14 -30t-30 -12zM1057 1082q17 -4 25 -20q8 -14 4 -30l-63 -233q-5 -17 -19 -25q-28 -16 -46 5q-19 20 -13 41l62 233q5 17 19 25t31 4z
M1217 1128h-629q-18 0 -28 -10t-11 -24q0 -14 4 -25q44 -84 47 -140l58 -889q2 -16 14 -28t29 -12h404q17 0 29 12t13 28l58 889q4 56 47 140q16 41 -18 56q-7 3 -17 3zM1105 -86h-405q-50 0 -88 35t-41 86l-54 882q-4 59 -33 99t-21 90t46 78q38 30 86 30h617q48 0 86 -30
t46 -79t-22 -90t-34 -100l-54 -880q-3 -51 -40 -86t-89 -35zM1223 1446q-27 -3 -34 -29l-37 -132q-4 -16 -18 -24t-30 -4t-24 18t-3 30l39 139q20 67 89 76l280 36q16 2 29 -8t15 -25q2 -16 -8 -29t-26 -15z" />
    <glyph glyph-name="uniE554" unicode="popsicle" 
d="M598 328q21 0 35 -15l79 -79q15 -16 15 -36t-15 -34l-161 -162q-34 -34 -83 -30t-75 40t-21 76t34 68l157 157q14 15 35 15zM1450 729q10 1 16 7t6 15t-6 15t-16 7q-18 0 -21 -14q-4 -14 4 -22t17 -8zM1454 836q-2 -19 12 -22q29 -7 32 18q8 97 -50 176q-13 18 -30 4
q-16 -14 -4 -28q46 -68 40 -148zM980 158q-44 0 -76 31l-329 330q-32 31 -32 75t32 76l426 426q69 69 162 91q93 21 185 -9t152 -102t76 -155q16 -82 -11 -165t-94 -151l-416 -416q-31 -31 -75 -31z" />
    <glyph glyph-name="uniE555" unicode="popsicle&#x2d;eaten" 
d="M582 342q20 0 36 -15l79 -79q14 -14 14 -35t-14 -35l-162 -162q-33 -34 -82 -30t-75 40t-21 76q5 39 33 68l157 157q15 15 35 15zM964 158q-44 0 -76 31l-329 330q-31 31 -31 75t31 76l426 426q79 79 189 95t203 -33q27 -14 31 -46t-28 -60t-54 -78t-23 -108t27 -113
q28 -56 76 -91q24 -19 28 -48t-18 -50l-376 -375q-32 -31 -76 -31z" />
    <glyph glyph-name="uniE556" unicode="ice&#x2d;cream" 
d="M888 -105q-32 0 -44 29l-331 747q-11 23 3 43t39 21h667q25 -1 38 -21t3 -43l-331 -747q-12 -29 -44 -29zM1123 1096q6 -4 15 -2q10 0 16 8t6 18t-8 18q-8 6 -18 6t-18 -8q-6 -8 -6 -16t4 -14t9 -10zM890 1290q0 -24 21 -27q91 -11 155 -77q14 -16 35 -1q20 15 2 35
q-76 80 -187 90q-10 0 -18 -6t-8 -14zM1301 820h-826q-52 0 -84 42q-47 62 9 122q10 10 28 21q20 11 24 41q13 108 74 196q60 88 156 139t192 51q182 0 307 -112t143 -274q4 -30 26 -42t39 -36q18 -23 14 -61q-4 -39 -34 -63t-68 -24z" />
    <glyph glyph-name="uniE557" unicode="ice&#x2d;cream&#x2d;alt" 
d="M1070 -106h-362q-17 0 -30 12t-16 28l-73 499q-5 31 -33 47t-34 47l-25 156q-3 21 11 37t33 15h694q30 0 38 -19q9 -19 6 -33l-24 -156q-5 -31 -33 -47t-33 -47l-74 -499q-2 -16 -15 -28t-30 -12zM1136 1094q10 0 18 8q6 8 6 18t-8 18q-8 6 -18 6t-18 -8q-6 -8 -6 -18
t8 -18q8 -7 18 -6zM890 1288q0 -22 21 -25q92 -11 155 -77q16 -16 35 -1q20 15 2 35q-76 80 -187 90q-14 2 -20 -7t-6 -15zM1301 820h-826q-37 0 -67 24t-34 58q-8 67 48 98q26 16 30 46q24 198 194 313q107 73 230 73q122 0 218 -51t156 -139t75 -196q3 -30 29 -45
q57 -33 49 -96q-4 -37 -34 -61t-68 -24z" />
    <glyph glyph-name="uniE558" unicode="ice&#x2d;cream&#x2d;eaten&#x2d;alt" 
d="M1069 -106h-362q-17 0 -30 12t-16 28l-73 499q-6 31 -34 47t-33 47l-25 156q-4 21 10 37t34 15h695q19 1 33 -15t11 -37l-25 -156q-5 -31 -33 -47t-33 -47l-73 -499q-3 -16 -16 -28t-30 -12zM955 1367q0 -123 76 -200t188 -77q21 0 43 4t40 -9t21 -35l1 -2q4 -32 30 -47
q54 -32 49 -81q-5 -48 -33 -74t-66 -26h-833q-52 0 -82 43q-15 20 -17 47q-5 59 48 90q28 16 31 46q21 164 144 275q124 111 293 111q45 0 61 -37q6 -14 6 -28z" />
    <glyph glyph-name="uniE561" unicode="ice&#x2d;cream&#x2d;eaten" 
d="M889 -189q-29 0 -40 27l-334 838q-9 21 4 40t36 19h668q23 0 36 -19t5 -40l-335 -838q-11 -27 -40 -27zM1304 820h-832q-53 0 -85 45q-31 45 -3 97q14 24 38 39q26 15 30 45q18 162 143 274t293 112q68 0 68 -80q0 -108 76 -184t184 -76q20 0 42 4t43 -10q19 -14 23 -43
q4 -28 30 -42q56 -31 50 -88q-5 -57 -53 -81q-22 -12 -47 -12z" />
    <glyph glyph-name="uniE562" unicode="mug" 
d="M1497 117q30 0 30 -35q0 -18 -23 -24q-58 -22 -144 -40t-101 -18h-717q-15 0 -83 14t-120 30q-52 17 -58 25q-6 7 -6 19q1 12 9 20t20 9h1193zM1597 596q0 82 -64 105q-19 8 -37 -2t-24 -30q-38 -145 -115 -268q-9 -15 1 -31t28 -12q89 16 150 86t61 152zM1682 590
q0 -58 -30 -122q-30 -66 -80 -114q-51 -48 -127 -72t-162 -12q-23 2 -45 -20t-47 -44q-38 -26 -68 -25h-445q-29 -1 -67 25q-77 66 -137 150q-95 135 -133 271q-37 135 -37 177q0 41 16 61t43 20h1075q52 0 59 -60q2 -25 28 -31t51 -18q24 -12 50 -35q26 -21 41 -57t15 -94z
M825 1212q43 -44 43 -93q0 -48 -48 -93q-7 -8 -15 -2t-2 25t6 37q-1 18 -9 32t-20 26t-34 32q-21 20 -21 64t39 93q6 7 14 3t6 -20t-2 -38t43 -66zM976 1418q0 -34 14 -60t34 -46l40 -42q48 -50 48 -98q0 -84 -34 -129q-34 -46 -57 -62q-23 -17 -29 -11t-4 14q31 72 31 104
q1 32 -9 52t-25 33q-47 44 -73 71t-27 84q-1 58 25 108t65 76q6 6 13 2q8 -4 -2 -34q-10 -28 -10 -62z" />
    <glyph glyph-name="uniE563" unicode="noodle&#x2d;bowl" 
d="M1221 0h-641q-18 0 -30 12t-12 33l3 22q0 36 -23 51q-151 103 -229 269q-6 11 1 21t19 11h1182q21 -1 23 -21q0 -6 -3 -11q-78 -164 -229 -268q-23 -18 -23 -50l3 -23q0 -20 -12 -33t-29 -13zM329 675h1143q44 0 73 -34t22 -78l-5 -24q-7 -34 -44 -34h-1236q-15 -1 -28 9
t-16 25l-4 24q-8 44 21 78t74 34zM1509 1012q0 -15 -11 -25l-239 -238q-10 -10 -25 -10h-46q-12 1 -16 11t4 18l272 269q10 11 25 11t25 -10t11 -26zM1069 739h-21q-14 1 -20 11t-1 22l182 379q6 14 20 19q13 4 27 -2t19 -20t-1 -27l-173 -362q-10 -20 -32 -20z" />
    <glyph glyph-name="uniE564" unicode="bowl" 
d="M1243 0h-641q-18 0 -30 12t-12 33l3 22q0 36 -23 51q-151 103 -229 269q-6 11 1 21t19 11h1182q12 -1 19 -11t2 -21q-78 -164 -230 -268q-23 -18 -23 -50l4 -23q0 -22 -12 -34t-30 -12zM351 675h1143q44 0 73 -34t22 -78l-5 -24q-4 -15 -16 -25t-28 -10h-1236
q-22 0 -32 12t-12 23l-4 24q-10 63 42 97q24 16 53 15zM828 1014q43 -44 43 -93q0 -48 -48 -93q-7 -8 -15 -2t-2 25t7 37q0 18 -9 32t-21 26t-33 32t-21 64t38 93q6 7 15 3t6 -20t-3 -38t43 -66zM979 1222q1 -32 11 -54t25 -38q33 -36 67 -75t34 -83q0 -82 -35 -129t-73 -71
q-8 -6 -14 0t-2 14q31 72 31 104t-10 52t-25 33q-36 34 -68 66t-32 81q-1 128 90 192q6 6 13 2t5 -13q-17 -49 -17 -81z" />
    <glyph glyph-name="uniE565" unicode="bowl&#x2d;spoon" 
d="M1221 0h-640q-19 0 -31 12t-12 33l3 22q0 37 -23 51q-150 103 -229 269q-5 11 1 21t20 11h1181q13 -1 19 -11t2 -21q-78 -164 -229 -268q-23 -16 -23 -50l3 -23q0 -22 -12 -34t-30 -12zM329 675h1143q45 0 74 -34t21 -78l-5 -24q-2 -22 -28 -32q-8 -3 -16 -3h-1235
q-17 0 -29 10t-15 25l-5 24q-8 44 21 78t74 34zM1406 739h-46q-12 1 -16 11t4 18l271 269q11 11 25 11t26 -10q10 -10 10 -26q0 -15 -10 -25l-239 -238q-11 -10 -25 -10zM807 1014q43 -44 43 -93q0 -48 -48 -93q-8 -8 -16 -2t-2 25t7 37q-1 18 -9 32t-20 26t-34 32
q-21 20 -21 64t38 93q6 7 15 3q8 -4 6 -20t-2 -38t43 -66zM958 1223q0 -31 8 -49t19 -34q13 -16 27 -31q38 -39 60 -70t22 -68t-8 -65q-13 -48 -54 -97q-42 -51 -58 -37q-6 6 -4 14q31 72 31 106q1 34 -13 56t-34 40q-20 17 -40 35q-76 71 -34 185q25 68 76 106q6 6 13 2
t5 -13q-16 -50 -16 -80z" />
    <glyph glyph-name="uniE566" unicode="apple" 
d="M625 -17q-118 76 -231 262t-113 365q0 242 189 373q100 69 195 69q96 0 133 -19q38 -19 64 -27t54 -9q48 -1 100 27t121 28t120 -16q111 -36 202 -145q90 -109 90 -284q0 -176 -112 -362q-112 -187 -232 -263q-62 -40 -99 -39q-37 0 -58 6q-22 6 -36 14q-14 9 -28 17
q-75 47 -158 -13t-201 16zM929 1063q-162 0 -169 186q0 9 9 15t18 2q49 -25 91 -70q10 -10 23 -6t16 16q32 125 215 185q9 3 17 -3q9 -6 7 -26t-6 -48q-4 -30 -15 -66q-19 -67 -69 -124t-137 -61z" />
    <glyph glyph-name="uniE567" unicode="apple&#x2d;eaten" 
d="M667 1053q33 -1 69 -9t56 -18t46 -20q26 -9 54 -9q46 0 100 28q53 28 123 28q69 -1 119 -17t104 -52q52 -36 94 -86t68 -126q27 -75 27 -162q1 -86 -31 -184q-57 -177 -189 -330t-235 -153q-48 1 -72 15t-38 22q-77 48 -159 -13q-81 -62 -201 16q-119 77 -231 262
q-113 185 -113 365l1 21q2 51 78 51q107 0 183 76t76 183l-1 43q-5 25 17 47t55 22zM907 1063q-163 0 -170 187q1 16 11 17q36 6 108 -71q9 -9 22 -6t16 17q32 125 215 185q9 3 17 -3t6 -29t-8 -59q-17 -92 -67 -162q-51 -70 -150 -76z" />
    <glyph glyph-name="uniE568" unicode="pi&#x7a;&#x7a;a" 
d="M1259 322q1 34 -23 56q-24 24 -58 24t-56 -24q-24 -24 -24 -56q0 -34 24 -58t56 -23q34 -1 58 23t23 58zM945 381q9 -9 19 -11q25 -4 38 34q13 39 -20 47q-26 -1 -28 7t-2 13q9 47 -16 57q-24 10 -60 -4t-50 -52q-14 -37 1 -74t57 -41q13 1 18 9q6 8 7 9t3 4t2 4
q4 8 13 8t18 -10zM1057 728q1 34 -23 56q-24 24 -58 24t-56 -24q-24 -24 -24 -56q0 -34 24 -58t56 -23q34 -1 58 23t23 58zM698 770q142 142 333 212q15 6 31 -1t23 -22l391 -907q12 -29 -10 -51t-51 -9l-906 390q-16 7 -23 23t-1 32q71 191 213 333zM388 438q-8 0 -17 4
l-49 21q-15 6 -22 22t-1 32q85 225 255 395t396 256q16 7 32 0t23 -23l21 -49q8 -18 0 -34t-25 -23q-199 -75 -348 -225t-225 -348q-11 -28 -40 -28z" />
    <glyph glyph-name="uniE571" unicode="pi&#x7a;&#x7a;a&#x2d;eaten" 
d="M1166 241q33 -1 57 23t24 58t-24 56q-24 24 -57 24t-57 -24t-24 -56q0 -34 24 -58t57 -23zM924 388q28 -28 43 -15q15 12 21 30q14 40 -19 48q-24 -1 -27 7t-2 13q10 47 -16 57t-62 -4t-48 -52q-13 -37 1 -74t56 -41q7 1 11 3q3 2 4 2l4 4q4 4 6 7q9 18 17 18t11 -3z
M1044 728q0 34 -24 56q-24 24 -56 24q-34 0 -58 -24t-23 -56q-1 -34 23 -58t58 -23q34 -1 56 23q24 24 24 58zM1379 242q0 -17 -28 -22q-28 -6 -44 -42q-5 -14 -29 -12t-45 -18t-23 -37q-4 -32 -29 -23l-685 294q-16 7 -23 23t-1 32q72 191 214 333t332 212q16 6 32 -1
t22 -22l305 -707q2 -5 2 -10zM640 814q-150 -150 -225 -348q-7 -16 -23 -24t-33 0l-49 21q-16 6 -23 22t-1 32q86 225 256 395t396 256q16 7 32 0t22 -23l21 -49q7 -18 0 -34t-24 -23q-199 -75 -349 -225z" />
    <glyph glyph-name="uniE572" unicode="drumstick" 
d="M678 238q0 -19 -13 -32l-82 -82q-51 -50 -51 -108t-32 -84t-68 -26t-67 24q-30 24 -32 70q-44 2 -69 32q-26 30 -26 66t28 70q28 33 81 30q54 -3 97 40l95 95q13 13 32 13t44 -29q25 -28 50 -47q13 -13 13 -32zM802 277q-30 -18 -60 1t-68 58q-38 40 -60 72t-4 61
q52 85 83 219t87 241t146 198q92 91 192 115t194 -4t155 -86q113 -112 119 -271q5 -158 -106 -268q-111 -111 -218 -167q-108 -56 -242 -86q-134 -32 -218 -83z" />
    <glyph glyph-name="uniE573" unicode="drumstick&#x2d;eaten" 
d="M533 16q0 -58 -32 -84t-68 -26t-66 24t-33 70q-42 2 -68 32t-26 66t27 70q27 33 81 30t98 40l94 95q13 13 32 13t44 -29q25 -28 50 -47q14 -13 14 -32t-13 -32l-83 -82q-51 -50 -51 -108zM1407 892q0 -106 90 -179q17 -13 21 -40t-39 -67q-105 -106 -213 -160t-244 -87
q-136 -32 -220 -84q-27 -17 -52 -1t-51 38q-119 105 -86 158q50 83 81 217q30 134 86 241t147 198t191 115q100 25 196 -3q95 -28 163 -96q21 -16 21 -42t-20 -43q-71 -59 -71 -165z" />
    <glyph glyph-name="uniE574" unicode="muffin" 
d="M559 0q-32 0 -56 20t-29 53l-48 329q-4 42 28 63q16 10 35 10h822q29 0 48 -22t15 -51l-48 -329q-5 -33 -29 -53t-55 -20h-683zM1424 560h-1048q-45 0 -80 28q-34 28 -38 60q-6 50 8 83q15 34 47 52t36 43q33 270 275 394q118 60 255 60q256 0 402 -129t171 -325
q4 -26 34 -44t46 -52t12 -74t-40 -68q-35 -28 -80 -28z" />
    <glyph glyph-name="uniE575" unicode="mustard" 
d="M1208 576v147q0 61 -52 93q-24 14 -54 14h-404q-44 0 -75 -32t-31 -75v-147q0 -44 31 -76t75 -31h404q44 -1 75 31t31 76zM615 1043h570q97 1 167 -69t70 -168q-2 -228 -14 -376t-48 -349q-4 -35 -32 -58t-65 -23h-730q-37 0 -63 24t-29 61q-63 387 -63 721q0 98 70 168
t167 69zM589 1109q-17 0 -30 13t-13 31v42q0 30 21 51t51 21h564q30 0 51 -21t21 -51v-42q0 -25 -16 -34q-16 -10 -27 -10h-622z" />
    <glyph glyph-name="uniE576" unicode="mustard&#x2d;alt" 
d="M900 288q90 0 152 62t62 152t-62 152t-152 62t-152 -62t-62 -152t62 -152t152 -62zM731 923h338q103 -1 175 -73t72 -174v-48q-1 -251 -65 -537q-5 -39 -34 -65t-68 -26h-498q-53 0 -85 44q-14 20 -17 47q-60 258 -65 536v49q0 102 72 174t175 73zM1023 1160h37
q33 0 56 -23t23 -55v-39q0 -21 -15 -35t-36 -15h-376q-21 1 -36 15t-15 35v39q0 32 23 55t56 23h36q27 0 46 18t21 44l8 95q1 19 15 32t34 13t34 -13t15 -32l8 -95q2 -26 21 -44t45 -18z" />
    <glyph glyph-name="uniE577" unicode="ketchup" 
d="M1077 401v142q1 45 -31 76t-76 31h-142q-44 0 -76 -31t-31 -76v-142q-1 -44 31 -75t76 -31h142q44 0 76 31t31 75zM1289 632v-45q-1 -235 -61 -502q-4 -37 -32 -61t-64 -24h-465q-35 0 -63 24t-32 61q-56 241 -61 501v46q1 124 113 198q40 26 68 74t29 104v149
q0 18 13 31t31 13h269q24 0 33 -16q10 -16 10 -28v-148q0 -116 108 -185q104 -69 104 -192zM767 1260q-46 0 -46 58q0 34 32 66t76 31h140q45 1 77 -31t31 -78q0 -46 -46 -46h-264z" />
    <glyph glyph-name="uniE578" unicode="sauce" 
d="M900 418q60 0 104 43q42 43 42 103t-42 104q-42 42 -104 42q-60 0 -102 -42t-43 -104q1 -60 43 -103t102 -43zM1229 630v-44q-1 -235 -60 -501q-5 -37 -33 -61t-63 -24h-346q-37 0 -64 24t-32 61q-55 240 -60 500v45q0 120 97 187q74 51 74 136v207q0 18 12 30t31 13h230
q19 -1 31 -13t12 -30v-207q0 -85 74 -136q97 -67 97 -187zM1058 1310q0 -46 -48 -47h-220q-48 1 -48 47t31 77t75 31h104q44 0 75 -31t31 -77z" />
    <glyph glyph-name="uniE581" unicode="egg" 
d="M1369 519q0 -95 -37 -198t-100 -178t-150 -119t-182 -44t-182 44t-150 119q-137 163 -137 395q0 153 63 322t172 285t234 116q184 0 326 -238q143 -238 143 -504z" />
    <glyph glyph-name="uniE582" unicode="fish" 
d="M1394 639q20 0 34 14q14 13 14 33t-14 34t-34 13q-20 1 -32 -13q-14 -14 -14 -34t14 -33q12 -14 32 -14zM1588 509q-102 -115 -232 -187q-130 -71 -313 -71q-241 1 -437 157q-30 24 -51 44t-43 20t-38 -15q-109 -103 -266 -145q-24 -6 -38 12t-3 40q99 190 99 237
t-99 237q-11 22 3 40t38 12q157 -42 266 -145q16 -15 38 -15t43 20t51 44q79 63 191 111q112 47 218 47q107 0 180 -16t131 -43q120 -56 191 -126q120 -117 120 -160q0 -42 -49 -98z" />
    <glyph glyph-name="uniE583" unicode="fridge" 
d="M1230 612q-18 0 -30 -11t-14 -29v-217q2 -17 14 -29t30 -12t32 12q12 12 13 29v217q-1 18 -13 29q-14 11 -32 11zM423 105v566q0 38 33 58q15 9 34 9h820q28 0 48 -20t19 -47v-566q-1 -77 -55 -131t-131 -55h-582q-77 1 -131 55t-55 131zM1234 1248q-44 0 -48 -40v-217
q3 -41 44 -41q20 0 32 12t13 29v217q-1 18 -13 29t-28 11zM423 890v386q1 78 55 132t131 54h582q77 0 131 -54t55 -132v-386q1 -28 -19 -48t-48 -19h-820q-28 -1 -48 19t-19 48z" />
    <glyph glyph-name="uniE584" unicode="eye" 
d="M1077 572q1 -74 -51 -125q-52 -52 -126 -52t-125 52q-52 51 -52 125t52 126q51 52 125 52t126 -52t51 -126zM882 244q72 0 122 16q97 32 161 118q64 85 64 184q0 100 -44 176t-120 119q-76 44 -165 44t-165 -44q-76 -43 -120 -119t-44 -166t44 -164q44 -76 120 -120
q75 -44 147 -44zM1707 572q0 -40 -30 -80t-72 -87q-42 -45 -116 -105q-256 -206 -591 -206q-336 0 -590 206q-112 91 -191 199q-23 33 -23 73t24 73t52 65t72 74t91 77q248 190 568 190q474 0 782 -406q24 -33 24 -73z" />
    <glyph glyph-name="uniE585" unicode="glasses" 
d="M1438 723q-63 0 -161 -7t-131 -12q-34 -6 -52 -25t2 -68q19 -48 55 -116q17 -31 72 -39q55 -7 134 -7t138 9q59 8 89 64t39 102q17 80 -39 87q-83 12 -146 12zM360 723q-63 0 -145 -12q-57 -7 -40 -87q10 -46 40 -102q31 -56 89 -64q58 -9 154 -9q96 1 136 11t53 35
q36 68 62 128q10 24 -2 49q-11 25 -37 29q-26 5 -71 9t-111 8t-128 5zM1342 327q-84 0 -146 11q-112 20 -157 112l-83 174q-17 35 -56 35t-56 -35l-83 -174q-45 -93 -132 -108q-86 -15 -171 -15q-86 -1 -158 7t-133 58t-83 118t-36 116q-27 97 40 158t266 61q200 0 314 -21
t150 -31q35 -10 49 -10h66q14 -1 38 7q174 54 372 55q197 1 277 -15t115 -74t19 -118t-38 -128t-83 -118t-134 -58t-157 -7z" />
    <glyph glyph-name="uniE586" unicode="crown" 
d="M1595 925v-636q-1 -41 -29 -69t-68 -28h-1196q-40 0 -68 28t-29 69v637q0 32 29 42t49 -13l220 -264q19 -23 49 -23t49 22l257 295q17 19 42 19t42 -19l260 -297q18 -22 48 -22t49 24l218 263q20 23 49 13t29 -41z" />
    <glyph glyph-name="uniE587" unicode="king" 
d="M1052 376q0 -34 16 -60q16 -27 40 -45q24 -17 54 -33t58 -32q30 -16 55 -32q55 -38 55 -101q0 -61 -22 -83q-52 -52 -114 -52h-588q-91 0 -124 72q-12 26 -12 60t15 60t40 44t55 32q30 16 58 32q30 16 54 33q56 41 56 103t-26 96q-26 35 -44 57q-109 126 -109 288
q0 93 8 125q13 54 52 54h542q24 0 42 -22t18 -104t-10 -137q-9 -53 -25 -89t-36 -64t-38 -51q-18 -22 -34 -43q-16 -22 -26 -48t-10 -60zM1210 1380v-284q0 -18 -12 -31t-31 -13h-534q-25 0 -34 16t-9 28v284q0 14 13 19t22 -6l98 -118q7 -10 21 -10t22 10l115 131q8 9 19 9
t19 -9l116 -132q7 -10 21 -10t22 11l97 117q9 10 22 6t13 -18z" />
    <glyph glyph-name="uniE588" unicode="notepad" 
d="M651 265h294q21 -1 37 15t16 38t-16 38t-37 16h-294q-21 0 -37 -16t-16 -38t16 -38t37 -15zM651 490h498q21 0 37 16t16 38t-16 38t-37 15h-498q-21 1 -37 -15t-16 -38t16 -38t37 -16zM651 718h498q21 0 37 16t16 37t-16 37t-37 16h-498q-21 0 -37 -16t-16 -37t16 -37
t37 -16zM1282 1254h23q41 0 69 -28t28 -69v-1060q0 -56 -48 -84q-22 -13 -49 -13h-810q-40 0 -68 28t-28 69v1060q0 41 28 69t68 28h27q33 0 33 -33v-86q-1 -51 39 -85t80 -28t60 24q45 36 45 95v80q-1 13 9 23t24 10h180q14 0 24 -10t9 -23v-86q0 -51 39 -85q40 -34 86 -26
t72 40q26 34 27 77v80q-1 13 9 23t24 10zM1136 1073q-26 0 -43 18q-18 18 -18 43v147q0 25 18 43q17 18 43 18t44 -18t18 -43v-147q0 -25 -18 -43t-44 -18zM668 1073q-26 0 -44 18t-18 43v147q0 25 18 43t44 18t42 -18q18 -18 18 -43v-147q0 -25 -18 -43q-16 -18 -42 -18z
" />
    <glyph glyph-name=".notdef" horiz-adv-x="500" 
d="M50 605v-510l170 255zM80 50h340l-170 255zM280 350l170 -255v510zM250 395l170 255h-340zM0 0v700h500v-700h-500z" />
    <glyph glyph-name=".null" horiz-adv-x="0" 
 />
    <glyph glyph-name="nonmarkingreturn" horiz-adv-x="682" 
 />
    <glyph glyph-name="space" unicode=" " horiz-adv-x="600" 
 />
    <glyph glyph-name="hyphen" unicode="-" horiz-adv-x="659" 
d="M575 625v-152h-491v152h491z" />
    <glyph glyph-name="period" unicode="." horiz-adv-x="600" 
d="M302 -3q-52 0 -90 37q-36 37 -36 95t42 88q42 31 89 31t83 -36t37 -89q-1 -52 -37 -89t-88 -37z" />
    <glyph glyph-name="zero" unicode="0" horiz-adv-x="1171" 
d="M270 733q0 -319 75 -465t239 -145t240 147q75 146 75 462t-75 463q-76 146 -240 146q-164 -1 -239 -145t-75 -463zM102 738q0 746 478 747q240 -1 365 -193q124 -192 124 -566q0 -746 -485 -746q-236 0 -359 192q-123 190 -123 566z" />
    <glyph glyph-name="one" unicode="1" horiz-adv-x="1171" 
d="M715 1462v-1462h-162v1042q0 123 8 246q-21 -22 -41 -39t-244 -200l-88 114l387 299h140z" />
    <glyph glyph-name="two" unicode="2" horiz-adv-x="1171" 
d="M309 154h752v-154h-961v143l385 387q182 185 232 254q112 151 112 286q1 135 -71 203t-181 68t-191 -31t-179 -108l-88 113q203 168 424 168t339 -105t117 -284q0 -142 -80 -278t-290 -341l-320 -313v-8z" />
    <glyph glyph-name="three" unicode="3" horiz-adv-x="1171" 
d="M557 1483q213 0 331 -97t118 -252q0 -302 -301 -364v-8q346 -42 346 -348q0 -210 -145 -322q-146 -112 -398 -112t-414 79v158q194 -96 406 -96q379 0 379 297q0 266 -418 266h-144v143h146q171 -1 271 75t100 196t-74 182q-74 61 -186 61t-197 -27t-191 -95l-84 112
q192 152 455 152z" />
    <glyph glyph-name="four" unicode="4" horiz-adv-x="1171" 
d="M754 487v486q0 152 10 323h-8q-48 -96 -90 -159l-457 -650h545zM913 487h217v-151h-217v-336h-159v336h-711v145l694 989h176v-983z" />
    <glyph glyph-name="five" unicode="5" horiz-adv-x="1171" 
d="M557 893q231 -1 363 -115t133 -327q-1 -213 -145 -342t-394 -129t-381 79v160q69 -44 173 -70t206 -26q177 -1 274 83t97 240q0 306 -375 306q-92 0 -254 -29l-86 55l55 684h727v-153h-585l-37 -439q118 23 229 23z" />
    <glyph glyph-name="six" unicode="6" horiz-adv-x="1171" 
d="M608 121q143 0 221 90q78 89 78 247t-74 240t-217 82q-90 0 -165 -37t-119 -102t-45 -152q1 -87 41 -176t113 -141t167 -51zM117 625q0 858 663 858q115 0 178 -19v-143q-75 25 -176 25q-237 0 -360 -148t-135 -459h12q109 172 348 172q197 0 311 -119q114 -118 113 -334
q0 -216 -124 -347q-125 -131 -345 -131t-352 172t-133 473z" />
    <glyph glyph-name="seven" unicode="7" horiz-adv-x="1171" 
d="M94 1309v153h973v-133l-598 -1329h-184l606 1309h-797z" />
    <glyph glyph-name="eight" unicode="8" horiz-adv-x="1171" 
d="M268 363q0 -114 84 -181t233 -67q150 -1 233 69t83 181t-80 186t-270 145q-149 -64 -216 -142t-67 -191zM583 1348q-125 0 -197 -60t-71 -156q1 -98 61 -164t216 -130q142 60 202 128t60 166t-73 157t-198 59zM586 1483q200 0 316 -93t116 -257q0 -220 -281 -359
q176 -84 252 -177t76 -218q1 -183 -127 -291t-355 -108t-353 102t-126 291q0 251 306 391q-136 77 -197 167t-61 204q0 159 118 253t316 95z" />
    <glyph glyph-name="nine" unicode="9" horiz-adv-x="1171" 
d="M569 1341q-143 1 -221 -91t-78 -248t74 -237t217 -81q90 0 167 37t121 101t44 152t-41 176t-114 140q-74 51 -169 51zM106 1001q0 216 127 349t336 133q150 -1 261 -77t171 -222t60 -346q0 -858 -664 -858q-115 0 -184 20v143q81 -26 182 -26q241 1 363 149t133 455h-12
q-111 -170 -351 -170q-194 0 -308 117t-114 333z" />
    <glyph glyph-name="A" unicode="A" horiz-adv-x="1296" 
d="M412 618h473l-170 453q-34 88 -68 211q-22 -94 -63 -211zM721 1468l575 -1468h-176l-182 465h-586l-180 -465h-172l578 1468h143z" />
    <glyph glyph-name="B" unicode="B" horiz-adv-x="1327" 
d="M676 145q356 0 356 278q0 141 -91 205t-279 64h-291v-547h305zM371 1315v-479h280q181 0 259 56t79 186q1 128 -87 182t-281 55h-250zM201 0v1462h413q290 0 420 -86t131 -276q0 -131 -73 -215t-211 -109v-10q333 -57 333 -350q0 -196 -133 -306t-370 -110h-510z" />
    <glyph glyph-name="C" unicode="C" horiz-adv-x="1292" 
d="M827 1331q-241 -1 -381 -161t-139 -444t135 -439q134 -156 383 -156q154 0 349 55v-149q-152 -57 -375 -57q-323 0 -499 196t-175 557q0 226 85 396t244 262q160 92 382 92t395 -84l-72 -146q-167 78 -332 78z" />
    <glyph glyph-name="D" unicode="D" horiz-adv-x="1493" 
d="M1188 735q0 580 -570 580h-247v-1168h207q302 0 456 149t154 439zM1368 734q0 -350 -196 -542t-566 -192h-405v1462h448q341 0 530 -189t189 -539z" />
    <glyph glyph-name="E" unicode="E" horiz-adv-x="1139" 
d="M371 152h645v-152h-815v1462h815v-151h-645v-471h606v-150h-606v-538z" />
    <glyph glyph-name="F" unicode="F" horiz-adv-x="1057" 
d="M977 625h-606v-625h-170v1462h815v-151h-645v-535h606v-151z" />
    <glyph glyph-name="G" unicode="G" horiz-adv-x="1491" 
d="M1171 614h-327v152h497v-711q-237 -75 -514 -75q-332 0 -517 198t-185 553q0 227 92 399q91 172 263 262t404 91q232 0 435 -86l-66 -150q-198 84 -381 84q-267 0 -417 -159t-150 -448q1 -289 145 -442t424 -153q149 0 297 35v450z" />
    <glyph glyph-name="H" unicode="H" horiz-adv-x="1511" 
d="M1141 1462h170v-1462h-170v688h-770v-688h-170v1462h170v-622h770v622z" />
    <glyph glyph-name="I" unicode="I" horiz-adv-x="682" 
d="M598 0h-514v98l172 35v1194l-172 37v98h514v-98l-172 -37v-1194l172 -35v-98z" />
    <glyph glyph-name="J" unicode="J" horiz-adv-x="547" 
d="M-12 -385q-94 0 -148 27v145q72 -20 160 -20t138 60q52 60 52 173v1462h170v-1448q0 -191 -96 -295t-276 -104z" />
    <glyph glyph-name="K" unicode="K" horiz-adv-x="1257" 
d="M371 0h-170v1462h170v-725l663 725h201l-588 -635l610 -827h-200l-533 709l-153 -136v-573z" />
    <glyph glyph-name="L" unicode="L" horiz-adv-x="1063" 
d="M1016 154v-154h-815v1462h170v-1308h645z" />
    <glyph glyph-name="M" unicode="M" horiz-adv-x="1849" 
d="M358 930v-930h-157v1462h256l463 -1206h8l467 1206h254v-1462h-170v942q0 154 14 352h-8l-500 -1294h-137l-496 1296h-8q14 -160 14 -366z" />
    <glyph glyph-name="N" unicode="N" horiz-adv-x="1544" 
d="M1184 1462h159v-1462h-194l-799 1227h-8q16 -209 16 -396v-831h-157v1462h192l797 -1222h8q-4 44 -10 186t-4 197v839z" />
    <glyph glyph-name="O" unicode="O" horiz-adv-x="1595" 
d="M305 732q1 -294 127 -449q126 -154 368 -154t366 153q124 154 124 450t-124 448t-366 153t-368 -153t-127 -448zM1470 733q0 -353 -178 -553t-497 -200t-495 197t-175 557t177 555q176 196 494 196t496 -200t178 -552z" />
    <glyph glyph-name="P" unicode="P" horiz-adv-x="1233" 
d="M371 1315v-594h153q226 0 327 73t101 226t-96 224t-295 71h-190zM1128 1036q0 -222 -152 -342t-433 -119h-172v-575h-170v1462h379q548 0 548 -426z" />
    <glyph glyph-name="Q" unicode="Q" horiz-adv-x="1595" 
d="M305 732q1 -294 127 -449q126 -154 368 -154t366 153q124 154 124 450t-124 448t-366 153t-368 -153t-127 -448zM1470 733q0 -281 -112 -467t-320 -252l348 -362h-247l-285 330l-55 -2q-323 0 -499 197t-175 557t177 555q176 196 494 196t496 -200t178 -552z" />
    <glyph glyph-name="R" unicode="R" horiz-adv-x="1266" 
d="M371 1313v-559h233q180 0 264 71t84 215t-86 208t-274 65h-221zM371 608v-608h-170v1462h401q268 0 397 -102t129 -311q0 -290 -294 -392l397 -657h-201l-354 608h-305z" />
    <glyph glyph-name="S" unicode="S" horiz-adv-x="1124" 
d="M1026 389q0 -193 -140 -301t-390 -108q-252 0 -390 67v164q194 -82 384 -82q364 0 364 244q0 75 -30 124t-102 89t-246 104q-176 63 -264 163q-88 101 -87 265t127 264t340 101q214 0 397 -80l-53 -148q-180 76 -334 76t-229 -58q-76 -57 -76 -147t28 -138t94 -88
t204 -91q227 -81 315 -175t88 -245z" />
    <glyph glyph-name="T" unicode="T" horiz-adv-x="1133" 
d="M1114 1311h-463v-1311h-170v1311h-463v151h1096v-151z" />
    <glyph glyph-name="U" unicode="U" horiz-adv-x="1491" 
d="M1135 1462h170v-946q0 -250 -151 -393q-150 -143 -414 -143t-409 144t-145 396v942h170v-954q0 -184 100 -282t290 -97q189 1 289 99t100 282v952z" />
    <glyph glyph-name="V" unicode="V" horiz-adv-x="1219" 
d="M1036 1462h183l-527 -1462h-168l-524 1462h180l336 -946q56 -158 92 -317q37 167 94 323z" />
    <glyph glyph-name="W" unicode="W" horiz-adv-x="1896" 
d="M1688 1462h180l-391 -1462h-168l-295 979q-22 67 -48 165t-26 118q-23 -135 -70 -289l-286 -973h-168l-389 1462h180l231 -903q47 -187 70 -344q26 179 80 358l262 889h180l275 -897q48 -154 81 -350q19 141 72 346z" />
    <glyph glyph-name="X" unicode="X" horiz-adv-x="1182" 
d="M1139 1462l-453 -692l488 -770h-193l-393 643l-400 -643h-180l486 764l-453 698h188l363 -579l366 579h181z" />
    <glyph glyph-name="Y" unicode="Y" horiz-adv-x="1147" 
d="M659 0h-172v559l-487 903h186l387 -731l390 731h184l-488 -895v-567z" />
    <glyph glyph-name="Z" unicode="Z" horiz-adv-x="1169" 
d="M1087 154v-154h-1005v133l776 1176h-752v153h959v-133l-776 -1175h798z" />
    <glyph glyph-name="underscore" unicode="_" horiz-adv-x="918" 
d="M-4 -184h926v-131h-926v131z" />
    <glyph glyph-name="a" unicode="a" horiz-adv-x="1139" 
d="M475 117q156 0 244 85t88 238v99l-166 -7q-197 -8 -285 -62t-88 -156q0 -197 207 -197zM973 0h-123l-33 156h-8q-80 -100 -161 -138q-82 -38 -226 -38t-236 84t-92 239q0 331 531 348l186 6v68q0 130 -56 191q-55 61 -185 61t-302 -84l-51 127q172 94 370 94t292 -88
t94 -278v-748z" />
    <glyph glyph-name="b" unicode="b" horiz-adv-x="1255" 
d="M666 119q303 0 303 432q1 214 -75 319t-240 105t-238 -98t-74 -328t76 -330t248 -100zM680 1114q222 0 342 -148t119 -416q-1 -270 -121 -420t-340 -150t-338 161h-12l-35 -141h-119v1556h166v-378q0 -121 -8 -228h8q116 164 338 164z" />
    <glyph glyph-name="c" unicode="c" horiz-adv-x="975" 
d="M614 -20q-238 0 -368 146t-131 419q1 271 133 421t377 150q77 0 157 -16t125 -41l-51 -141q-128 51 -235 51q-334 0 -334 -426q0 -203 82 -311q81 -108 229 -107q148 0 293 59v-147q-109 -57 -277 -57z" />
    <glyph glyph-name="d" unicode="d" horiz-adv-x="1255" 
d="M287 543q-1 -424 313 -424q160 1 236 93t77 298v35q-1 231 -77 331t-235 101q-159 0 -237 -113t-77 -321zM1079 0h-135l-22 147h-9q-116 -167 -338 -167t-341 148t-119 417q0 271 120 421q121 150 339 150t337 -162h13l-7 79l-4 77v446h166v-1556z" />
    <glyph glyph-name="e" unicode="e" horiz-adv-x="1149" 
d="M594 977q-130 1 -210 -85q-79 -86 -93 -239h573q0 156 -70 240t-200 84zM639 -20q-244 0 -384 148t-140 412q1 264 131 420t342 156t334 -135q120 -135 120 -358v-105h-755q5 -192 97 -292t264 -101q172 0 347 74v-148q-89 -39 -168 -55t-188 -16z" />
    <glyph glyph-name="f" unicode="f" horiz-adv-x="694" 
d="M391 1096h279v-129h-279v-967h-166v967h-196v75l196 60v61q0 404 353 404q85 0 204 -35l-43 -133q-94 31 -176 31q-172 0 -172 -263v-71z" />
    <glyph glyph-name="g" unicode="g" horiz-adv-x="1122" 
d="M199 -178q0 -187 290 -187q205 0 307 61t103 161t-55 134t-207 34h-199q-114 0 -176 -54t-63 -149zM289 750q1 -118 65 -178t181 -60q243 0 243 236q0 247 -246 247q-118 1 -180 -63t-63 -182zM184 238q0 112 133 192q-86 36 -139 120t-53 191q0 179 108 277t306 98
q84 0 155 -20h379v-105l-203 -24q72 -91 72 -219q0 -162 -110 -258t-302 -95q-46 0 -92 8q-106 -55 -106 -141q0 -46 38 -67t126 -21h194q178 0 274 -75t95 -218q0 -181 -146 -277t-426 -96q-215 0 -331 80t-117 226q1 102 65 174t179 98q-43 20 -71 60t-28 92z" />
    <glyph glyph-name="h" unicode="h" horiz-adv-x="1257" 
d="M1092 0h-166v709q0 135 -62 201t-190 65q-174 -1 -253 -95t-79 -307v-573h-166v1556h166v-471q0 -82 -8 -141h10q49 80 140 125t206 45q202 0 302 -96t100 -303v-715z" />
    <glyph glyph-name="i" unicode="i" horiz-adv-x="518" 
d="M176 1096h166v-1096h-166v1096zM162 1394q0 54 27 82t70 27q43 0 71 -28t28 -82q0 -55 -28 -83t-71 -28t-70 28q-27 30 -27 84z" />
    <glyph glyph-name="j" unicode="j" horiz-adv-x="518" 
d="M43 -492q-97 0 -154 25v135q71 -20 143 -20q144 0 144 172v1276h166v-1264q0 -324 -299 -324zM162 1394q0 54 27 82t70 27q43 0 71 -28t28 -82q0 -55 -28 -83t-71 -28t-70 28q-27 30 -27 84z" />
    <glyph glyph-name="k" unicode="k" horiz-adv-x="1075" 
d="M340 0h-164v1556h164v-825q0 -47 -8 -170h8q46 64 131 160l354 375h197l-444 -467l475 -629h-201l-387 518l-125 -108v-410z" />
    <glyph glyph-name="l" unicode="l" horiz-adv-x="518" 
d="M176 1556h166v-1556h-166v1556z" />
    <glyph glyph-name="m" unicode="m" horiz-adv-x="1905" 
d="M1573 713q0 262 -230 262q-155 0 -229 -89t-74 -274v-612h-166v713q0 132 -56 197t-175 65q-157 0 -229 -94t-72 -306v-575h-166v1096h135l27 -150h8q46 80 132 125t192 45q256 0 336 -186h8q48 86 142 136t212 50q188 0 280 -96t91 -305v-715h-166v713z" />
    <glyph glyph-name="n" unicode="n" horiz-adv-x="1257" 
d="M1092 0h-166v709q0 135 -62 201t-190 65q-172 0 -252 -94t-80 -306v-575h-166v1096h135l27 -150h8q50 82 142 126t206 44q202 0 300 -97t98 -304v-715z" />
    <glyph glyph-name="o" unicode="o" horiz-adv-x="1237" 
d="M287 549q1 -210 85 -320t246 -110q162 -1 248 109q84 110 84 320t-84 319q-84 108 -250 108q-329 0 -329 -426zM1122 546q0 -264 -135 -415t-373 -151q-147 0 -261 69t-176 199t-62 301q0 267 134 417t368 150q233 0 369 -153t136 -417z" />
    <glyph glyph-name="p" unicode="p" horiz-adv-x="1255" 
d="M652 975q-156 -1 -232 -93t-78 -296v-37q0 -230 76 -330t234 -100q156 0 236 115t81 318q0 203 -80 313t-237 110zM680 -20q-220 0 -338 161h-12q12 -96 12 -182v-451h-166v1588h135l23 -150h8q120 170 341 170t339 -148t119 -418q-1 -270 -121 -420t-340 -150z" />
    <glyph glyph-name="q" unicode="q" horiz-adv-x="1255" 
d="M287 543q0 -424 312 -424q157 0 233 90t81 299v37q1 229 -77 331t-236 101q-158 0 -236 -113t-77 -321zM574 -20q-221 0 -340 149t-119 417t120 419t339 151t341 -170h9l24 150h131v-1588h-166v469q0 96 11 170h-13q-116 -167 -337 -167z" />
    <glyph glyph-name="r" unicode="r" horiz-adv-x="836" 
d="M661 1116q87 0 146 -12l-23 -154q-68 15 -120 15q-134 -1 -228 -109t-94 -268v-588h-166v1096h137l19 -203h8q62 107 148 165t173 58z" />
    <glyph glyph-name="s" unicode="s" horiz-adv-x="977" 
d="M883 299q1 -153 -113 -236t-326 -83t-335 69v154q170 -86 344 -86q270 0 270 168q0 64 -55 110q-56 45 -214 105t-220 102q-128 83 -128 221q0 137 109 215t293 78t352 -72l-59 -135q-167 68 -291 68q-246 0 -246 -139q0 -44 22 -75t72 -59t217 -90t237 -132
q70 -71 71 -183z" />
    <glyph glyph-name="t" unicode="t" horiz-adv-x="723" 
d="M506 -20q-318 0 -318 335v652h-157v80l157 69l70 234h96v-254h318v-129h-318v-645q0 -98 46 -152t128 -53q81 0 152 20v-127q-65 -30 -174 -30z" />
    <glyph glyph-name="u" unicode="u" horiz-adv-x="1257" 
d="M563 -20q-203 0 -301 96t-98 303v717h168v-711q0 -135 62 -201t190 -65q173 1 252 95t79 306v576h166v-1096h-137l-24 147h-9q-105 -167 -348 -167z" />
    <glyph glyph-name="v" unicode="v" horiz-adv-x="1026" 
d="M516 150q17 79 332 946h178l-416 -1096h-194l-416 1096h178l236 -650q82 -234 94 -296h8z" />
    <glyph glyph-name="w" unicode="w" horiz-adv-x="1593" 
d="M1571 1096l-303 -1096h-197l-201 643q-14 43 -71 268h-8q-42 -181 -70 -270l-207 -641h-192l-299 1096h174l162 -629q55 -216 63 -291h8q29 145 78 291l201 629h180l196 -629q58 -179 76 -289h8q5 40 19 100t211 818h172z" />
    <glyph glyph-name="x" unicode="x" horiz-adv-x="1073" 
d="M227 0h-188l401 561l-381 535h189l289 -420l288 420h187l-381 -535l401 -561h-188l-307 444z" />
    </font>
</defs>
</svg>
